  0
SECTION
  2
HEADER
  9
$ACADVER
  1
AC1015
  9
$ACADMAINTVER
 70
     6
  9
$DWGCODEPAGE
  3
ANSI_1252
  9
$INSBASE
 10
0.0
 20
0.0
 30
0.0
  9
$EXTMIN
 10
0.0
 20
0.0
 30
-3.004955431567928
  9
$EXTMAX
 10
8.500000000000001
 20
11.0
 30
9.014866294703786
  9
$LIMMIN
 10
0.0
 20
0.0
  9
$LIMMAX
 10
0.0
 20
0.0
  9
$ORTHOMODE
 70
     1
  9
$REGENMODE
 70
     1
  9
$FILLMODE
 70
     1
  9
$QTEXTMODE
 70
     0
  9
$MIRRTEXT
 70
     1
  9
$LTSCALE
 40
1.0
  9
$ATTMODE
 70
     1
  9
$TEXTSIZE
 40
0.2
  9
$TRACEWID
 40
0.05
  9
$TEXTSTYLE
  7
Standard
  9
$CLAYER
  8
0
  9
$CELTYPE
  6
Continuous
  9
$CECOLOR
 62
   256
  9
$CELTSCALE
 40
1.0
  9
$DISPSILH
 70
     0
  9
$DIMSCALE
 40
1.0
  9
$DIMASZ
 40
0.1875
  9
$DIMEXO
 40
0.05
  9
$DIMDLI
 40
0.38
  9
$DIMRND
 40
0.0
  9
$DIMDLE
 40
0.125
  9
$DIMEXE
 40
0.18
  9
$DIMTP
 40
0.0
  9
$DIMTM
 40
0.0
  9
$DIMTXT
 40
0.1377952755905512
  9
$DIMCEN
 40
0.09
  9
$DIMTSZ
 40
0.0
  9
$DIMTOL
 70
     0
  9
$DIMLIM
 70
     0
  9
$DIMTIH
 70
     1
  9
$DIMTOH
 70
     1
  9
$DIMSE1
 70
     0
  9
$DIMSE2
 70
     0
  9
$DIMTAD
 70
     0
  9
$DIMZIN
 70
     0
  9
$DIMBLK
  1

  9
$DIMASO
 70
     1
  9
$DIMSHO
 70
     1
  9
$DIMPOST
  1

  9
$DIMAPOST
  1

  9
$DIMALT
 70
     0
  9
$DIMALTD
 70
     2
  9
$DIMALTF
 40
25.4
  9
$DIMLFAC
 40
1.0
  9
$DIMTOFL
 70
     0
  9
$DIMTVP
 40
0.0
  9
$DIMTIX
 70
     0
  9
$DIMSOXD
 70
     0
  9
$DIMSAH
 70
     0
  9
$DIMBLK1
  1

  9
$DIMBLK2
  1

  9
$DIMSTYLE
  2
Standard
  9
$DIMCLRD
 70
     0
  9
$DIMCLRE
 70
     0
  9
$DIMCLRT
 70
     0
  9
$DIMTFAC
 40
1.0
  9
$DIMGAP
 40
0.05
  9
$DIMJUST
 70
     0
  9
$DIMSD1
 70
     0
  9
$DIMSD2
 70
     0
  9
$DIMTOLJ
 70
     1
  9
$DIMTZIN
 70
     0
  9
$DIMALTZ
 70
     0
  9
$DIMALTTZ
 70
     0
  9
$DIMUPT
 70
     0
  9
$DIMDEC
 70
     4
  9
$DIMTDEC
 70
     4
  9
$DIMALTU
 70
     2
  9
$DIMALTTD
 70
     2
  9
$DIMTXSTY
  7
Standard
  9
$DIMAUNIT
 70
     0
  9
$DIMADEC
 70
     0
  9
$DIMALTRND
 40
0.0
  9
$DIMAZIN
 70
     0
  9
$DIMDSEP
 70
    46
  9
$DIMATFIT
 70
     3
  9
$DIMFRAC
 70
     0
  9
$DIMLDRBLK
  1

  9
$DIMLUNIT
 70
     2
  9
$DIMLWD
 70
    -2
  9
$DIMLWE
 70
    -2
  9
$DIMTMOVE
 70
     0
  9
$LUNITS
 70
     2
  9
$LUPREC
 70
     2
  9
$SKETCHINC
 40
0.1
  9
$FILLETRAD
 40
0.0
  9
$AUNITS
 70
     0
  9
$AUPREC
 70
     2
  9
$MENU
  1
.
  9
$ELEVATION
 40
0.0
  9
$PELEVATION
 40
0.0
  9
$THICKNESS
 40
0.0
  9
$LIMCHECK
 70
     0
  9
$CHAMFERA
 40
0.0
  9
$CHAMFERB
 40
0.0
  9
$CHAMFERC
 40
0.0
  9
$CHAMFERD
 40
0.0
  9
$SKPOLY
 70
     0
  9
$TDCREATE
 40
2453353.383792488
  9
$TDUCREATE
 40
2453353.717125822
  9
$TDUPDATE
 40
2455203.456982407
  9
$TDUUPDATE
 40
2455203.790315740
  9
$TDINDWG
 40
0.1912042130
  9
$TDUSRTIMER
 40
0.1911810648
  9
$USRTIMER
 70
     1
  9
$ANGBASE
 50
0.0
  9
$ANGDIR
 70
     0
  9
$PDMODE
 70
     0
  9
$PDSIZE
 40
-1.0
  9
$PLINEWID
 40
0.0
  9
$SPLFRAME
 70
     0
  9
$SPLINETYPE
 70
     6
  9
$SPLINESEGS
 70
     8
  9
$HANDSEED
  5
7A5
  9
$SURFTAB1
 70
     6
  9
$SURFTAB2
 70
     6
  9
$SURFTYPE
 70
     6
  9
$SURFU
 70
     6
  9
$SURFV
 70
     6
  9
$UCSBASE
  2

  9
$UCSNAME
  2

  9
$UCSORG
 10
0.0
 20
0.0
 30
0.0
  9
$UCSXDIR
 10
1.0
 20
0.0
 30
0.0
  9
$UCSYDIR
 10
0.0
 20
1.0
 30
0.0
  9
$UCSORTHOREF
  2

  9
$UCSORTHOVIEW
 70
     0
  9
$UCSORGTOP
 10
0.0
 20
0.0
 30
0.0
  9
$UCSORGBOTTOM
 10
0.0
 20
0.0
 30
0.0
  9
$UCSORGLEFT
 10
0.0
 20
0.0
 30
0.0
  9
$UCSORGRIGHT
 10
0.0
 20
0.0
 30
0.0
  9
$UCSORGFRONT
 10
0.0
 20
0.0
 30
0.0
  9
$UCSORGBACK
 10
0.0
 20
0.0
 30
0.0
  9
$PUCSBASE
  2

  9
$PUCSNAME
  2

  9
$PUCSORG
 10
0.0
 20
0.0
 30
0.0
  9
$PUCSXDIR
 10
1.0
 20
0.0
 30
0.0
  9
$PUCSYDIR
 10
0.0
 20
1.0
 30
0.0
  9
$PUCSORTHOREF
  2

  9
$PUCSORTHOVIEW
 70
     0
  9
$PUCSORGTOP
 10
0.0
 20
0.0
 30
0.0
  9
$PUCSORGBOTTOM
 10
0.0
 20
0.0
 30
0.0
  9
$PUCSORGLEFT
 10
0.0
 20
0.0
 30
0.0
  9
$PUCSORGRIGHT
 10
0.0
 20
0.0
 30
0.0
  9
$PUCSORGFRONT
 10
0.0
 20
0.0
 30
0.0
  9
$PUCSORGBACK
 10
0.0
 20
0.0
 30
0.0
  9
$USERI1
 70
     0
  9
$USERI2
 70
     0
  9
$USERI3
 70
     0
  9
$USERI4
 70
     0
  9
$USERI5
 70
     0
  9
$USERR1
 40
0.0
  9
$USERR2
 40
0.0
  9
$USERR3
 40
0.0
  9
$USERR4
 40
0.0
  9
$USERR5
 40
0.0
  9
$WORLDVIEW
 70
     1
  9
$SHADEDGE
 70
     3
  9
$SHADEDIF
 70
    70
  9
$TILEMODE
 70
     1
  9
$MAXACTVP
 70
    16
  9
$PINSBASE
 10
0.0
 20
0.0
 30
0.0
  9
$PLIMCHECK
 70
     0
  9
$PEXTMIN
 10
1.000000000000000E+20
 20
1.000000000000000E+20
 30
1.000000000000000E+20
  9
$PEXTMAX
 10
-1.000000000000000E+20
 20
-1.000000000000000E+20
 30
-1.000000000000000E+20
  9
$PLIMMIN
 10
0.0
 20
0.0
  9
$PLIMMAX
 10
12.0
 20
9.0
  9
$UNITMODE
 70
     0
  9
$VISRETAIN
 70
     0
  9
$PLINEGEN
 70
     1
  9
$PSLTSCALE
 70
     1
  9
$TREEDEPTH
 70
  3020
  9
$CMLSTYLE
  2
Standard
  9
$CMLJUST
 70
     0
  9
$CMLSCALE
 40
1.0
  9
$PROXYGRAPHICS
 70
     1
  9
$MEASUREMENT
 70
     0
  9
$CELWEIGHT
370
    -1
  9
$ENDCAPS
280
     0
  9
$JOINSTYLE
280
     0
  9
$LWDISPLAY
290
     0
  9
$INSUNITS
 70
     0
  9
$HYPERLINKBASE
  1

  9
$STYLESHEET
  1

  9
$XEDIT
290
     0
  9
$CEPSNTYPE
380
     0
  9
$PSTYLEMODE
290
     1
  9
$FINGERPRINTGUID
  2
{EA9CF3F3-39E3-4B90-8640-B03F2AF7E543}
  9
$VERSIONGUID
  2
{75B1F100-4C45-4EE2-9581-B1E1C3A6C3DC}
  9
$EXTNAMES
290
     1
  9
$PSVPSCALE
 40
0.0
  9
$OLESTARTUP
290
     0
  0
ENDSEC
  0
SECTION
  2
CLASSES
  0
CLASS
  1
ACDBDICTIONARYWDFLT
  2
AcDbDictionaryWithDefault
  3
AutoCAD 2000
 90
        0
280
     0
281
     0
  0
CLASS
  1
ACDBPLACEHOLDER
  2
AcDbPlaceHolder
  3
AutoCAD 2000
 90
        0
280
     0
281
     0
  0
CLASS
  1
LAYOUT
  2
AcDbLayout
  3
AutoCAD 2000
 90
        0
280
     0
281
     0
  0
CLASS
  1
DICTIONARYVAR
  2
AcDbDictionaryVar
  3
AutoCAD 2000
 90
        0
280
     0
281
     0
  0
CLASS
  1
TABLESTYLE
  2
AcDbTableStyle
  3
ObjectDBX Classes
 90
     4095
280
     0
281
     0
  0
ENDSEC
  0
SECTION
  2
TABLES
  0
TABLE
  2
VPORT
  5
8
330
0
100
AcDbSymbolTable
 70
     3
  0
VPORT
  5
7A4
330
8
100
AcDbSymbolTableRecord
100
AcDbViewportTableRecord
  2
*Active
 70
     0
 10
0.0
 20
0.0
 11
1.0
 21
1.0
 12
4.814281124217895
 22
5.57198305115242
 13
0.0
 23
0.0
 14
1.0
 24
1.0
 15
0.0
 25
0.0
 16
0.0
 26
0.0
 36
1.0
 17
0.0
 27
0.0
 37
0.0
 40
14.74880242591884
 41
1.694796061884669
 42
50.0
 43
0.0
 44
0.0
 50
0.0
 51
0.0
 71
    16
 72
  2000
 73
     1
 74
     1
 75
     0
 76
     0
 77
     0
 78
     0
281
     0
 65
     0
110
0.0
120
0.0
130
0.0
111
1.0
121
0.0
131
0.0
112
0.0
122
1.0
132
0.0
 79
     0
146
0.0
  0
ENDTAB
  0
TABLE
  2
LTYPE
  5
5
330
0
100
AcDbSymbolTable
 70
    18
  0
LTYPE
  5
14
330
5
100
AcDbSymbolTableRecord
100
AcDbLinetypeTableRecord
  2
ByBlock
 70
     0
  3

 72
    65
 73
     0
 40
0.0
  0
LTYPE
  5
15
330
5
100
AcDbSymbolTableRecord
100
AcDbLinetypeTableRecord
  2
ByLayer
 70
     0
  3

 72
    65
 73
     0
 40
0.0
  0
LTYPE
  5
16
330
5
100
AcDbSymbolTableRecord
100
AcDbLinetypeTableRecord
  2
Continuous
 70
     0
  3
Solid line
 72
    65
 73
     0
 40
0.0
  0
LTYPE
  5
70A
330
5
100
AcDbSymbolTableRecord
100
AcDbLinetypeTableRecord
  2
SLDVISIBLE1
 70
     0
  3

 72
    65
 73
     0
 40
0.0
  0
LTYPE
  5
70B
330
5
100
AcDbSymbolTableRecord
100
AcDbLinetypeTableRecord
  2
SLDHIDDEN0
 70
     0
  3

 72
    65
 73
     2
 40
0.075
 49
0.05
 74
     4
 75
     0
340
0
 46
1.0
 50
0.0
 44
0.0
 45
0.0
 49
-0.025
 74
     4
 75
     0
340
0
 46
1.0
 50
0.0
 44
0.0
 45
0.0
  0
LTYPE
  5
70C
330
5
100
AcDbSymbolTableRecord
100
AcDbLinetypeTableRecord
  2
SLDSKETCH0
 70
     0
  3

 72
    65
 73
     0
 40
0.0
  0
LTYPE
  5
70D
330
5
100
AcDbSymbolTableRecord
100
AcDbLinetypeTableRecord
  2
SLDDETAIL0
 70
     0
  3

 72
    65
 73
     0
 40
0.0
  0
LTYPE
  5
70E
330
5
100
AcDbSymbolTableRecord
100
AcDbLinetypeTableRecord
  2
SLDSECTION0
 70
     0
  3

 72
    65
 73
     6
 40
0.5
 49
0.25
 74
     4
 75
     0
340
0
 46
1.0
 50
0.0
 44
0.0
 45
0.0
 49
-0.05
 74
     4
 75
     0
340
0
 46
1.0
 50
0.0
 44
0.0
 45
0.0
 49
0.05
 74
     4
 75
     0
340
0
 46
1.0
 50
0.0
 44
0.0
 45
0.0
 49
-0.05
 74
     4
 75
     0
340
0
 46
1.0
 50
0.0
 44
0.0
 45
0.0
 49
0.05
 74
     4
 75
     0
340
0
 46
1.0
 50
0.0
 44
0.0
 45
0.0
 49
-0.05
 74
     4
 75
     0
340
0
 46
1.0
 50
0.0
 44
0.0
 45
0.0
  0
LTYPE
  5
70F
330
5
100
AcDbSymbolTableRecord
100
AcDbLinetypeTableRecord
  2
SLDDIMENSIONS0
 70
     0
  3

 72
    65
 73
     0
 40
0.0
  0
LTYPE
  5
710
330
5
100
AcDbSymbolTableRecord
100
AcDbLinetypeTableRecord
  2
SLDCENTERLINES0
 70
     0
  3

 72
    65
 73
     4
 40
0.7500000000000002
 49
0.6000000000000001
 74
     4
 75
     0
340
0
 46
1.0
 50
0.0
 44
0.0
 45
0.0
 49
-0.05
 74
     4
 75
     0
340
0
 46
1.0
 50
0.0
 44
0.0
 45
0.0
 49
0.05
 74
     4
 75
     0
340
0
 46
1.0
 50
0.0
 44
0.0
 45
0.0
 49
-0.05
 74
     4
 75
     0
340
0
 46
1.0
 50
0.0
 44
0.0
 45
0.0
  0
LTYPE
  5
711
330
5
100
AcDbSymbolTableRecord
100
AcDbLinetypeTableRecord
  2
SLDCROSSHATCH0
 70
     0
  3

 72
    65
 73
     0
 40
0.0
  0
LTYPE
  5
712
330
5
100
AcDbSymbolTableRecord
100
AcDbLinetypeTableRecord
  2
SLDTANVISIBLE0
 70
     0
  3

 72
    65
 73
     6
 40
0.5
 49
0.25
 74
     4
 75
     0
340
0
 46
1.0
 50
0.0
 44
0.0
 45
0.0
 49
-0.05
 74
     4
 75
     0
340
0
 46
1.0
 50
0.0
 44
0.0
 45
0.0
 49
0.05
 74
     4
 75
     0
340
0
 46
1.0
 50
0.0
 44
0.0
 45
0.0
 49
-0.05
 74
     4
 75
     0
340
0
 46
1.0
 50
0.0
 44
0.0
 45
0.0
 49
0.05
 74
     4
 75
     0
340
0
 46
1.0
 50
0.0
 44
0.0
 45
0.0
 49
-0.05
 74
     4
 75
     0
340
0
 46
1.0
 50
0.0
 44
0.0
 45
0.0
  0
LTYPE
  5
713
330
5
100
AcDbSymbolTableRecord
100
AcDbLinetypeTableRecord
  2
SLDDETAILBORDER0
 70
     0
  3

 72
    65
 73
     0
 40
0.0
  0
LTYPE
  5
714
330
5
100
AcDbSymbolTableRecord
100
AcDbLinetypeTableRecord
  2
SLDDUMMY1
 70
     0
  3

 72
    65
 73
     0
 40
0.0
  0
LTYPE
  5
715
330
5
100
AcDbSymbolTableRecord
100
AcDbLinetypeTableRecord
  2
SLDTANHIDDEN0
 70
     0
  3

 72
    65
 73
     2
 40
0.075
 49
0.05
 74
     4
 75
     0
340
0
 46
1.0
 50
0.0
 44
0.0
 45
0.0
 49
-0.025
 74
     4
 75
     0
340
0
 46
1.0
 50
0.0
 44
0.0
 45
0.0
  0
LTYPE
  5
716
330
5
100
AcDbSymbolTableRecord
100
AcDbLinetypeTableRecord
  2
SLDVIEWARROW0
 70
     0
  3

 72
    65
 73
     2
 40
0.075
 49
0.05
 74
     4
 75
     0
340
0
 46
1.0
 50
0.0
 44
0.0
 45
0.0
 49
-0.025
 74
     4
 75
     0
340
0
 46
1.0
 50
0.0
 44
0.0
 45
0.0
  0
LTYPE
  5
717
330
5
100
AcDbSymbolTableRecord
100
AcDbLinetypeTableRecord
  2
SLD--SPACER--0
 70
     0
  3

 72
    65
 73
     0
 40
0.0
  0
LTYPE
  5
718
330
5
100
AcDbSymbolTableRecord
100
AcDbLinetypeTableRecord
  2
SLDUSER-DASHED0
 70
     0
  3

 72
    65
 73
     2
 40
0.075
 49
0.05
 74
     4
 75
     0
340
0
 46
1.0
 50
0.0
 44
0.0
 45
0.0
 49
-0.025
 74
     4
 75
     0
340
0
 46
1.0
 50
0.0
 44
0.0
 45
0.0
  0
LTYPE
  5
719
330
5
100
AcDbSymbolTableRecord
100
AcDbLinetypeTableRecord
  2
SLDUSER-PHANTOM0
 70
     0
  3

 72
    65
 73
     6
 40
0.5
 49
0.25
 74
     4
 75
     0
340
0
 46
1.0
 50
0.0
 44
0.0
 45
0.0
 49
-0.05
 74
     4
 75
     0
340
0
 46
1.0
 50
0.0
 44
0.0
 45
0.0
 49
0.05
 74
     4
 75
     0
340
0
 46
1.0
 50
0.0
 44
0.0
 45
0.0
 49
-0.05
 74
     4
 75
     0
340
0
 46
1.0
 50
0.0
 44
0.0
 45
0.0
 49
0.05
 74
     4
 75
     0
340
0
 46
1.0
 50
0.0
 44
0.0
 45
0.0
 49
-0.05
 74
     4
 75
     0
340
0
 46
1.0
 50
0.0
 44
0.0
 45
0.0
  0
LTYPE
  5
71A
330
5
100
AcDbSymbolTableRecord
100
AcDbLinetypeTableRecord
  2
SLDUSER-CENTER0
 70
     0
  3

 72
    65
 73
     4
 40
0.7500000000000002
 49
0.6000000000000001
 74
     4
 75
     0
340
0
 46
1.0
 50
0.0
 44
0.0
 45
0.0
 49
-0.05
 74
     4
 75
     0
340
0
 46
1.0
 50
0.0
 44
0.0
 45
0.0
 49
0.05
 74
     4
 75
     0
340
0
 46
1.0
 50
0.0
 44
0.0
 45
0.0
 49
-0.05
 74
     4
 75
     0
340
0
 46
1.0
 50
0.0
 44
0.0
 45
0.0
  0
ENDTAB
  0
TABLE
  2
LAYER
  5
2
330
0
100
AcDbSymbolTable
 70
     2
  0
LAYER
  5
10
330
2
100
AcDbSymbolTableRecord
100
AcDbLayerTableRecord
  2
0
 70
     0
 62
     7
  6
Continuous
370
    -3
390
F
  0
LAYER
  5
37
330
2
100
AcDbSymbolTableRecord
100
AcDbLayerTableRecord
  2
DEFPOINTS
 70
     0
 62
     7
  6
Continuous
290
     0
370
    -3
390
F
  0
ENDTAB
  0
TABLE
  2
STYLE
  5
3
330
0
100
AcDbSymbolTable
 70
     1
  0
STYLE
  5
11
330
3
100
AcDbSymbolTableRecord
100
AcDbTextStyleTableRecord
  2
Standard
 70
     0
 40
0.073
 41
1.0
 50
0.0
 71
     0
 42
0.2
  3

  4

1001
ACAD
1000
Century Gothic
1071
       34
  0
ENDTAB
  0
TABLE
  2
VIEW
  5
6
330
0
100
AcDbSymbolTable
 70
     0
  0
ENDTAB
  0
TABLE
  2
UCS
  5
7
330
0
100
AcDbSymbolTable
 70
     0
  0
ENDTAB
  0
TABLE
  2
APPID
  5
9
330
0
100
AcDbSymbolTable
 70
     2
  0
APPID
  5
12
330
9
100
AcDbSymbolTableRecord
100
AcDbRegAppTableRecord
  2
ACAD
 70
     0
  0
APPID
  5
709
330
9
100
AcDbSymbolTableRecord
100
AcDbRegAppTableRecord
  2
DCO15
 70
     0
  0
ENDTAB
  0
TABLE
  2
DIMSTYLE
  5
A
330
0
100
AcDbSymbolTable
 70
     4
100
AcDbDimStyleTable
 71
     0
  0
DIMSTYLE
105
27
330
A
100
AcDbSymbolTableRecord
100
AcDbDimStyleTableRecord
  2
Standard
 70
     0
289
     0
340
11
  0
DIMSTYLE
105
3A2
102
{ACAD_REACTORS
330
3A6
330
3B2
102
}
330
A
100
AcDbSymbolTableRecord
100
AcDbDimStyleTableRecord
  2
SLDDIMSTYLE0
 70
     0
 41
0.1875
 44
0.125
 78
    12
140
0.1111111111111111
147
0.0277777777777778
271
     2
284
    12
289
     0
340
11
  0
DIMSTYLE
105
3C2
330
A
100
AcDbSymbolTableRecord
100
AcDbDimStyleTableRecord
  2
SLDDIMSTYLE1
 70
     0
 41
0.1875
 44
0.0
140
6.0
147
1.5
271
     0
272
     0
289
     0
340
11
  0
DIMSTYLE
105
3CE
330
A
100
AcDbSymbolTableRecord
100
AcDbDimStyleTableRecord
  2
SLDDIMSTYLE2
 70
     0
 41
0.1875
 44
0.0
140
6.0
147
1.5
271
     0
272
     0
289
     0
340
11
  0
ENDTAB
  0
TABLE
  2
BLOCK_RECORD
  5
1
330
0
100
AcDbSymbolTable
 70
    18
  0
BLOCK_RECORD
  5
1F
330
1
100
AcDbSymbolTableRecord
100
AcDbBlockTableRecord
  2
*Model_Space
340
22
  0
BLOCK_RECORD
  5
73
330
1
100
AcDbSymbolTableRecord
100
AcDbBlockTableRecord
  2
*Paper_Space
340
74
  0
BLOCK_RECORD
  5
39B
330
1
100
AcDbSymbolTableRecord
100
AcDbBlockTableRecord
  2
*D0
340
0
  0
BLOCK_RECORD
  5
3A7
330
1
100
AcDbSymbolTableRecord
100
AcDbBlockTableRecord
  2
*D1
340
0
  0
BLOCK_RECORD
  5
3CF
330
1
100
AcDbSymbolTableRecord
100
AcDbBlockTableRecord
  2
NOTE21
340
0
102
{BLKREFS
331
3D4
102
}
  0
BLOCK_RECORD
  5
3D6
330
1
100
AcDbSymbolTableRecord
100
AcDbBlockTableRecord
  2
NOTE22
340
0
102
{BLKREFS
331
3DB
102
}
  0
BLOCK_RECORD
  5
3DD
330
1
100
AcDbSymbolTableRecord
100
AcDbBlockTableRecord
  2
NOTE23
340
0
102
{BLKREFS
331
3E2
102
}
  0
BLOCK_RECORD
  5
3E4
330
1
100
AcDbSymbolTableRecord
100
AcDbBlockTableRecord
  2
NOTE24
340
0
102
{BLKREFS
331
3E9
102
}
  0
BLOCK_RECORD
  5
3EB
330
1
100
AcDbSymbolTableRecord
100
AcDbBlockTableRecord
  2
NOTE25
340
0
102
{BLKREFS
331
3F0
102
}
  0
BLOCK_RECORD
  5
3F2
330
1
100
AcDbSymbolTableRecord
100
AcDbBlockTableRecord
  2
NOTE26
340
0
102
{BLKREFS
331
3F7
102
}
  0
BLOCK_RECORD
  5
3F9
330
1
100
AcDbSymbolTableRecord
100
AcDbBlockTableRecord
  2
NOTE27
340
0
102
{BLKREFS
331
3FE
102
}
  0
BLOCK_RECORD
  5
400
330
1
100
AcDbSymbolTableRecord
100
AcDbBlockTableRecord
  2
NOTE28
340
0
  0
BLOCK_RECORD
  5
407
330
1
100
AcDbSymbolTableRecord
100
AcDbBlockTableRecord
  2
NOTE29
340
0
  0
BLOCK_RECORD
  5
40E
330
1
100
AcDbSymbolTableRecord
100
AcDbBlockTableRecord
  2
NOTE30
340
0
  0
BLOCK_RECORD
  5
415
330
1
100
AcDbSymbolTableRecord
100
AcDbBlockTableRecord
  2
NOTE31
340
0
  0
BLOCK_RECORD
  5
41C
330
1
100
AcDbSymbolTableRecord
100
AcDbBlockTableRecord
  2
NOTE32
340
0
  0
BLOCK_RECORD
  5
423
330
1
100
AcDbSymbolTableRecord
100
AcDbBlockTableRecord
  2
NOTE33
340
0
  0
BLOCK_RECORD
  5
42B
330
1
100
AcDbSymbolTableRecord
100
AcDbBlockTableRecord
  2
NOTE35
340
0
102
{BLKREFS
331
430
102
}
  0
BLOCK_RECORD
  5
432
330
1
100
AcDbSymbolTableRecord
100
AcDbBlockTableRecord
  2
NOTE36
340
0
  0
BLOCK_RECORD
  5
439
330
1
100
AcDbSymbolTableRecord
100
AcDbBlockTableRecord
  2
NOTE37
340
0
  0
ENDTAB
  0
ENDSEC
  0
SECTION
  2
BLOCKS
  0
BLOCK
  5
20
330
1F
100
AcDbEntity
  8
0
100
AcDbBlockBegin
  2
*Model_Space
 70
     0
 10
0.0
 20
0.0
 30
0.0
  3
*Model_Space
  1

  0
ENDBLK
  5
21
330
1F
100
AcDbEntity
  8
0
100
AcDbBlockEnd
  0
BLOCK
  5
75
330
73
100
AcDbEntity
 67
     1
  8
0
100
AcDbBlockBegin
  2
*Paper_Space
 70
     0
 10
0.0
 20
0.0
 30
0.0
  3
*Paper_Space
  1

  0
ENDBLK
  5
76
330
73
100
AcDbEntity
 67
     1
  8
0
100
AcDbBlockEnd
  0
BLOCK
  5
71B
330
39B
100
AcDbEntity
  8
0
100
AcDbBlockBegin
  2
*D0
 70
     1
 10
0.0
 20
0.0
 30
0.0
  3
*D0
  1

  0
LINE
  5
76A
330
39B
100
AcDbEntity
  8
0
 62
     0
370
    -2
100
AcDbLine
 10
3.554784909522158
 20
4.07363399183984
 30
0.0
 11
3.55478490952216
 21
3.792225704934319
 31
0.0
  0
LINE
  5
76B
330
39B
100
AcDbEntity
  8
0
 62
     0
370
    -2
100
AcDbLine
 10
1.787983122257687
 20
4.07363399183984
 30
0.0
 11
1.787983122257689
 21
3.792225704934307
 31
0.0
  0
LINE
  5
76C
330
39B
100
AcDbEntity
  8
0
 62
     0
370
    -2
100
AcDbLine
 10
3.367284909522159
 20
3.917225704934318
 30
0.0
 11
2.892090365096272
 21
3.917225704934314
 31
0.0
  0
LINE
  5
76D
330
39B
100
AcDbEntity
  8
0
 62
     0
370
    -2
100
AcDbLine
 10
1.975483122257688
 20
3.917225704934308
 30
0.0
 11
2.450677666683574
 21
3.917225704934311
 31
0.0
  0
SOLID
  5
76E
330
39B
100
AcDbEntity
  8
0
 62
     0
100
AcDbTrace
 10
3.367284909522159
 20
3.948475704934318
 30
0.0
 11
3.367284909522159
 21
3.885975704934318
 31
0.0
 12
3.554784909522159
 22
3.917225704934319
 32
0.0
 13
3.554784909522159
 23
3.917225704934319
 33
0.0
  0
SOLID
  5
76F
330
39B
100
AcDbEntity
  8
0
 62
     0
100
AcDbTrace
 10
1.975483122257688
 20
3.948475704934308
 30
0.0
 11
1.975483122257688
 21
3.885975704934308
 31
0.0
 12
1.787983122257688
 22
3.917225704934307
 32
0.0
 13
1.787983122257688
 23
3.917225704934307
 33
0.0
  0
MTEXT
  5
770
330
39B
100
AcDbEntity
  8
0
 62
     0
100
AcDbMText
 10
2.671384015889923
 20
3.917225704934313
 30
0.0
 40
0.073
 41
0.0
 71
     5
 72
     1
  1
\A1;12"1.77
 73
     1
 44
1.0
  0
POINT
  5
771
330
39B
100
AcDbEntity
  8
DEFPOINTS
 62
     0
100
AcDbPoint
 10
3.554784909522158
 20
4.13613399183984
 30
0.0
  0
POINT
  5
772
330
39B
100
AcDbEntity
  8
DEFPOINTS
 62
     0
100
AcDbPoint
 10
1.787983122257686
 20
4.13613399183984
 30
0.0
  0
POINT
  5
773
330
39B
100
AcDbEntity
  8
DEFPOINTS
 62
     0
100
AcDbPoint
 10
1.787983122257688
 20
3.917225704934307
 30
0.0
  0
ENDBLK
  5
71C
330
39B
100
AcDbEntity
  8
0
100
AcDbBlockEnd
  0
BLOCK
  5
71D
330
3A7
100
AcDbEntity
  8
0
100
AcDbBlockBegin
  2
*D1
 70
     1
 10
0.0
 20
0.0
 30
0.0
  3
*D1
  1

  0
LINE
  5
760
330
3A7
100
AcDbEntity
  8
0
 62
     0
370
    -2
100
AcDbLine
 10
2.503599074961615
 20
4.13613399183984
 30
0.0
 11
1.501298362384913
 21
4.136133991839841
 31
0.0
  0
LINE
  5
761
330
3A7
100
AcDbEntity
  8
0
 62
     0
370
    -2
100
AcDbLine
 10
1.725483122257686
 20
3.423962875187817
 30
0.0
 11
1.501298362384913
 21
3.423962875187817
 31
0.0
  0
LINE
  5
762
330
3A7
100
AcDbEntity
  8
0
 62
     0
370
    -2
100
AcDbLine
 10
1.626298362384913
 20
3.948633991839841
 30
0.0
 11
1.626298362384913
 21
3.851278592243987
 31
0.0
  0
LINE
  5
763
330
3A7
100
AcDbEntity
  8
0
 62
     0
370
    -2
100
AcDbLine
 10
1.626298362384913
 20
3.611462875187817
 30
0.0
 11
1.626298362384913
 21
3.70881827478367
 31
0.0
  0
SOLID
  5
764
330
3A7
100
AcDbEntity
  8
0
 62
     0
100
AcDbTrace
 10
1.595048362384913
 20
3.948633991839841
 30
0.0
 11
1.657548362384913
 21
3.948633991839841
 31
0.0
 12
1.626298362384913
 22
4.136133991839841
 32
0.0
 13
1.626298362384913
 23
4.136133991839841
 33
0.0
  0
SOLID
  5
765
330
3A7
100
AcDbEntity
  8
0
 62
     0
100
AcDbTrace
 10
1.595048362384913
 20
3.611462875187817
 30
0.0
 11
1.657548362384913
 21
3.611462875187817
 31
0.0
 12
1.626298362384913
 22
3.423962875187817
 32
0.0
 13
1.626298362384913
 23
3.423962875187817
 33
0.0
  0
MTEXT
  5
766
330
3A7
100
AcDbEntity
  8
0
 62
     0
100
AcDbMText
 10
1.626298362384912
 20
3.780048433513829
 30
0.0
 40
0.073
 41
0.0
 71
     5
 72
     1
  1
\A1;8".71
 73
     1
 44
1.0
  0
POINT
  5
767
330
3A7
100
AcDbEntity
  8
DEFPOINTS
 62
     0
100
AcDbPoint
 10
2.566099074961615
 20
4.13613399183984
 30
0.0
  0
POINT
  5
768
330
3A7
100
AcDbEntity
  8
DEFPOINTS
 62
     0
100
AcDbPoint
 10
1.787983122257686
 20
3.423962875187817
 30
0.0
  0
POINT
  5
769
330
3A7
100
AcDbEntity
  8
DEFPOINTS
 62
     0
100
AcDbPoint
 10
1.626298362384913
 20
3.423962875187817
 30
0.0
  0
ENDBLK
  5
71E
330
3A7
100
AcDbEntity
  8
0
100
AcDbBlockEnd
  0
BLOCK
  5
71F
330
3CF
100
AcDbEntity
  8
0
100
AcDbBlockBegin
  2
NOTE21
 70
     0
 10
0.0
 20
0.0
 30
0.0
  3
NOTE21
  1

  0
MTEXT
  5
3D1
330
3CF
100
AcDbEntity
  8
0
 62
     7
100
AcDbMText
 10
0.1538591996602607
 20
0.1634733947649219
 30
0.0
 40
0.125
 41
0.0
 71
     1
 72
     5
  1
1
 73
     1
 44
1.0
  0
CIRCLE
  5
3D2
330
3CF
100
AcDbEntity
  8
0
 62
     7
100
AcDbCircle
 10
0.1538591996602607
 20
0.0940252655857299
 30
0.0
 40
0.1803147356390015
  0
ENDBLK
  5
720
330
3CF
100
AcDbEntity
  8
0
100
AcDbBlockEnd
  0
BLOCK
  5
721
330
3D6
100
AcDbEntity
  8
0
100
AcDbBlockBegin
  2
NOTE22
 70
     0
 10
0.0
 20
0.0
 30
0.0
  3
NOTE22
  1

  0
MTEXT
  5
3D8
330
3D6
100
AcDbEntity
  8
0
 62
     7
100
AcDbMText
 10
0.157254590055011
 20
0.1576773635360263
 30
0.0
 40
0.125
 41
0.0
 71
     1
 72
     5
  1
2
 73
     1
 44
1.0
  0
CIRCLE
  5
3D9
330
3D6
100
AcDbEntity
  8
0
 62
     7
100
AcDbCircle
 10
0.157254590055011
 20
0.0882292343568354
 30
0.0
 40
0.1803147356390009
  0
ENDBLK
  5
722
330
3D6
100
AcDbEntity
  8
0
100
AcDbBlockEnd
  0
BLOCK
  5
723
330
3DD
100
AcDbEntity
  8
0
100
AcDbBlockBegin
  2
NOTE23
 70
     0
 10
0.0
 20
0.0
 30
0.0
  3
NOTE23
  1

  0
MTEXT
  5
3DF
330
3DD
100
AcDbEntity
  8
0
 62
     7
100
AcDbMText
 10
0.1766575207207717
 20
0.1055801684428851
 30
0.0
 40
0.125
 41
0.0
 71
     1
 72
     5
  1
4
 73
     1
 44
1.0
  0
CIRCLE
  5
3E0
330
3DD
100
AcDbEntity
  8
0
 62
     7
100
AcDbCircle
 10
0.1766575207207717
 20
0.0361320392636942
 30
0.0
 40
0.1803147356390009
  0
ENDBLK
  5
724
330
3DD
100
AcDbEntity
  8
0
100
AcDbBlockEnd
  0
BLOCK
  5
725
330
3E4
100
AcDbEntity
  8
0
100
AcDbBlockBegin
  2
NOTE24
 70
     0
 10
0.0
 20
0.0
 30
0.0
  3
NOTE24
  1

  0
MTEXT
  5
3E6
330
3E4
100
AcDbEntity
  8
0
 62
     7
100
AcDbMText
 10
0.16420681733144
 20
0.1439432634527946
 30
0.0
 40
0.125
 41
0.0
 71
     1
 72
     5
  1
3
 73
     1
 44
1.0
  0
CIRCLE
  5
3E7
330
3E4
100
AcDbEntity
  8
0
 62
     7
100
AcDbCircle
 10
0.16420681733144
 20
0.0744951342736037
 30
0.0
 40
0.1803147356390019
  0
ENDBLK
  5
726
330
3E4
100
AcDbEntity
  8
0
100
AcDbBlockEnd
  0
BLOCK
  5
727
330
3EB
100
AcDbEntity
  8
0
100
AcDbBlockBegin
  2
NOTE25
 70
     0
 10
0.0
 20
0.0
 30
0.0
  3
NOTE25
  1

  0
MTEXT
  5
3ED
330
3EB
100
AcDbEntity
  8
0
 62
     7
100
AcDbMText
 10
0.1667303652793331
 20
0.1381095388820446
 30
0.0
 40
0.125
 41
0.0
 71
     1
 72
     5
  1
5
 73
     1
 44
1.0
  0
CIRCLE
  5
3EE
330
3EB
100
AcDbEntity
  8
0
 62
     7
100
AcDbCircle
 10
0.1667303652793331
 20
0.0686614097028537
 30
0.0
 40
0.1803147356390014
  0
ENDBLK
  5
728
330
3EB
100
AcDbEntity
  8
0
100
AcDbBlockEnd
  0
BLOCK
  5
729
330
3F2
100
AcDbEntity
  8
0
100
AcDbBlockBegin
  2
NOTE26
 70
     0
 10
0.0
 20
0.0
 30
0.0
  3
NOTE26
  1

  0
MTEXT
  5
3F4
330
3F2
100
AcDbEntity
  8
0
 62
     7
100
AcDbMText
 10
0.10780713019708
 20
0.2139854135290521
 30
0.0
 40
0.125
 41
0.0
 71
     1
 72
     5
  1
6
 73
     1
 44
1.0
  0
CIRCLE
  5
3F5
330
3F2
100
AcDbEntity
  8
0
 62
     7
100
AcDbCircle
 10
0.10780713019708
 20
0.1445372843498611
 30
0.0
 40
0.1803147356390012
  0
ENDBLK
  5
72A
330
3F2
100
AcDbEntity
  8
0
100
AcDbBlockEnd
  0
BLOCK
  5
72B
330
3F9
100
AcDbEntity
  8
0
100
AcDbBlockBegin
  2
NOTE27
 70
     0
 10
0.0
 20
0.0
 30
0.0
  3
NOTE27
  1

  0
MTEXT
  5
3FB
330
3F9
100
AcDbEntity
  8
0
 62
     7
100
AcDbMText
 10
0.1061022406098217
 20
0.2152415392707932
 30
0.0
 40
0.125
 41
0.0
 71
     1
 72
     5
  1
8
 73
     1
 44
1.0
  0
CIRCLE
  5
3FC
330
3F9
100
AcDbEntity
  8
0
 62
     7
100
AcDbCircle
 10
0.1061022406098217
 20
0.1457934100916023
 30
0.0
 40
0.1803147356390007
  0
ENDBLK
  5
72C
330
3F9
100
AcDbEntity
  8
0
100
AcDbBlockEnd
  0
BLOCK
  5
72D
330
400
100
AcDbEntity
  8
0
100
AcDbBlockBegin
  2
NOTE28
 70
     0
 10
0.0
 20
0.0
 30
0.0
  3
NOTE28
  1

  0
MTEXT
  5
402
330
400
100
AcDbEntity
  8
0
 62
     7
100
AcDbMText
 10
0.0949435417284294
 20
0.2227423814283365
 30
0.0
 40
0.125
 41
0.0
 71
     1
 72
     5
  1
9
 73
     1
 44
1.0
  0
CIRCLE
  5
403
330
400
100
AcDbEntity
  8
0
 62
     7
100
AcDbCircle
 10
0.0949435417284294
 20
0.1532942522491456
 30
0.0
 40
0.1803147356390017
  0
ENDBLK
  5
72E
330
400
100
AcDbEntity
  8
0
100
AcDbBlockEnd
  0
BLOCK
  5
72F
330
407
100
AcDbEntity
  8
0
100
AcDbBlockBegin
  2
NOTE29
 70
     0
 10
0.0
 20
0.0
 30
0.0
  3
NOTE29
  1

  0
MTEXT
  5
409
330
407
100
AcDbEntity
  8
0
 62
     7
100
AcDbMText
 10
0.1288574792655041
 20
-0.0566833654044502
 30
0.0
 40
0.125
 41
0.0
 71
     1
 72
     5
  1
12
 73
     1
 44
1.0
  0
CIRCLE
  5
40A
330
407
100
AcDbEntity
  8
0
 62
     7
100
AcDbCircle
 10
0.1288574792655041
 20
-0.1261314945836408
 30
0.0
 40
0.1803147356390017
  0
ENDBLK
  5
730
330
407
100
AcDbEntity
  8
0
100
AcDbBlockEnd
  0
BLOCK
  5
731
330
40E
100
AcDbEntity
  8
0
100
AcDbBlockBegin
  2
NOTE30
 70
     0
 10
0.0
 20
0.0
 30
0.0
  3
NOTE30
  1

  0
MTEXT
  5
410
330
40E
100
AcDbEntity
  8
0
 62
     7
100
AcDbMText
 10
0.1277003931605707
 20
-0.0578547124041721
 30
0.0
 40
0.125
 41
0.0
 71
     1
 72
     5
  1
13
 73
     1
 44
1.0
  0
CIRCLE
  5
411
330
40E
100
AcDbEntity
  8
0
 62
     7
100
AcDbCircle
 10
0.1277003931605707
 20
-0.127302841583363
 30
0.0
 40
0.1803147356390017
  0
ENDBLK
  5
732
330
40E
100
AcDbEntity
  8
0
100
AcDbBlockEnd
  0
BLOCK
  5
733
330
415
100
AcDbEntity
  8
0
100
AcDbBlockBegin
  2
NOTE31
 70
     0
 10
0.0
 20
0.0
 30
0.0
  3
NOTE31
  1

  0
MTEXT
  5
417
330
415
100
AcDbEntity
  8
0
 62
     7
100
AcDbMText
 10
0.1247002567783403
 20
-0.0607949122778443
 30
0.0
 40
0.125
 41
0.0
 71
     1
 72
     5
  1
14
 73
     1
 44
1.0
  0
CIRCLE
  5
418
330
415
100
AcDbEntity
  8
0
 62
     7
100
AcDbCircle
 10
0.1247002567783403
 20
-0.130243041457035
 30
0.0
 40
0.1803147356390017
  0
ENDBLK
  5
734
330
415
100
AcDbEntity
  8
0
100
AcDbBlockEnd
  0
BLOCK
  5
735
330
41C
100
AcDbEntity
  8
0
100
AcDbBlockBegin
  2
NOTE32
 70
     0
 10
0.0
 20
0.0
 30
0.0
  3
NOTE32
  1

  0
MTEXT
  5
41E
330
41C
100
AcDbEntity
  8
0
 62
     7
100
AcDbMText
 10
0.1211527998561735
 20
-0.0641011238159976
 30
0.0
 40
0.125
 41
0.0
 71
     1
 72
     5
  1
16
 73
     1
 44
1.0
  0
CIRCLE
  5
41F
330
41C
100
AcDbEntity
  8
0
 62
     7
100
AcDbCircle
 10
0.1211527998561735
 20
-0.1335492529951883
 30
0.0
 40
0.1803147356390011
  0
ENDBLK
  5
736
330
41C
100
AcDbEntity
  8
0
100
AcDbBlockEnd
  0
BLOCK
  5
737
330
423
100
AcDbEntity
  8
0
100
AcDbBlockBegin
  2
NOTE33
 70
     0
 10
0.0
 20
0.0
 30
0.0
  3
NOTE33
  1

  0
MTEXT
  5
425
330
423
100
AcDbEntity
  8
0
 62
     7
100
AcDbMText
 10
0.1345432412014117
 20
-0.0505998617893454
 30
0.0
 40
0.125
 41
0.0
 71
     1
 72
     5
  1
11
 73
     1
 44
1.0
  0
CIRCLE
  5
426
330
423
100
AcDbEntity
  8
0
 62
     7
100
AcDbCircle
 10
0.1345432412014117
 20
-0.120047990968536
 30
0.0
 40
0.1803147356390017
  0
ENDBLK
  5
738
330
423
100
AcDbEntity
  8
0
100
AcDbBlockEnd
  0
BLOCK
  5
739
330
42B
100
AcDbEntity
  8
0
100
AcDbBlockBegin
  2
NOTE35
 70
     0
 10
0.0
 20
0.0
 30
0.0
  3
NOTE35
  1

  0
MTEXT
  5
42D
330
42B
100
AcDbEntity
  8
0
 62
     7
100
AcDbMText
 10
0.1190713946365522
 20
0.2305902749445207
 30
0.0
 40
0.1377952755905512
 41
0.0
 71
     1
 72
     5
  1
7
 73
     1
 44
1.0
  0
CIRCLE
  5
42E
330
42B
100
AcDbEntity
  8
0
 62
     7
100
AcDbCircle
 10
0.1190713946365522
 20
0.1572667318231334
 30
0.0
 40
0.1972582620805098
  0
ENDBLK
  5
73A
330
42B
100
AcDbEntity
  8
0
100
AcDbBlockEnd
  0
BLOCK
  5
73B
330
432
100
AcDbEntity
  8
0
100
AcDbBlockBegin
  2
NOTE36
 70
     0
 10
0.0
 20
0.0
 30
0.0
  3
NOTE36
  1

  0
MTEXT
  5
434
330
432
100
AcDbEntity
  8
0
 62
     7
100
AcDbMText
 10
0.1087846702429766
 20
0.2378735886368774
 30
0.0
 40
0.1377952755905512
 41
0.0
 71
     1
 72
     5
  1
10
 73
     1
 44
1.0
  0
CIRCLE
  5
435
330
432
100
AcDbEntity
  8
0
 62
     7
100
AcDbCircle
 10
0.1087846702429766
 20
0.1645500455154902
 30
0.0
 40
0.1972582620805098
  0
ENDBLK
  5
73C
330
432
100
AcDbEntity
  8
0
100
AcDbBlockEnd
  0
BLOCK
  5
73D
330
439
100
AcDbEntity
  8
0
100
AcDbBlockBegin
  2
NOTE37
 70
     0
 10
0.0
 20
0.0
 30
0.0
  3
NOTE37
  1

  0
MTEXT
  5
43B
330
439
100
AcDbEntity
  8
0
 62
     7
100
AcDbMText
 10
0.1267268133288757
 20
-0.0778423814202608
 30
0.0
 40
0.1377952755905512
 41
0.0
 71
     1
 72
     5
  1
15
 73
     1
 44
1.0
  0
CIRCLE
  5
43C
330
439
100
AcDbEntity
  8
0
 62
     7
100
AcDbCircle
 10
0.1267268133288757
 20
-0.151165924541648
 30
0.0
 40
0.1972582620805098
  0
ENDBLK
  5
73E
330
439
100
AcDbEntity
  8
0
100
AcDbBlockEnd
  0
ENDSEC
  0
SECTION
  2
ENTITIES
  0
LINE
  5
39
330
1F
100
AcDbEntity
  8
0
  6
Continuous
 62
     7
100
AcDbLine
 10
1.884105050899115
 20
0.7920911490527584
 30
0.0
 11
6.875860135654377
 21
0.7920911490527584
 31
0.0
  0
LINE
  5
3A
330
1F
100
AcDbEntity
  8
0
  6
Continuous
 62
     7
100
AcDbLine
 10
4.881548225634777
 20
4.13613399183984
 30
0.0
 11
2.776668956818231
 21
4.13613399183984
 31
0.0
  0
LINE
  5
3B
330
1F
100
AcDbEntity
  8
0
  6
Continuous
 62
     7
100
AcDbLine
 10
2.776668956818231
 20
3.378888721228344
 30
0.0
 11
2.776668956818231
 21
7.84702000210583
 31
0.0
  0
LINE
  5
3C
330
1F
100
AcDbEntity
  8
0
  6
Continuous
 62
     7
100
AcDbLine
 10
2.566099074961615
 20
3.378888721228344
 30
0.0
 11
2.566099074961615
 21
3.423962875187817
 31
0.0
  0
LINE
  5
3E
330
1F
100
AcDbEntity
  8
0
  6
Continuous
 62
     7
100
AcDbLine
 10
2.566099074961615
 20
4.13613399183984
 30
0.0
 11
0.33523443601295
 21
4.13613399183984
 31
0.0
  0
LINE
  5
3F
330
1F
100
AcDbEntity
  8
0
  6
Continuous
 62
     7
100
AcDbLine
 10
0.9375992407600598
 20
4.163325919526036
 30
0.0
 11
0.8536180682138079
 21
4.152176340507745
 31
0.0
  0
LINE
  5
40
330
1F
100
AcDbEntity
  8
0
  6
Continuous
 62
     7
100
AcDbLine
 10
2.511246901461447
 20
7.84702000210583
 30
0.0
 11
2.831521130318397
 21
7.84702000210583
 31
0.0
  0
LINE
  5
41
330
1F
100
AcDbEntity
  8
0
  6
Continuous
 62
     7
100
AcDbLine
 10
2.542546973845715
 20
7.643567524668409
 30
0.0
 11
2.542546973845715
 21
7.356444988203512
 31
0.0
  0
LINE
  5
42
330
1F
100
AcDbEntity
  8
0
  6
Continuous
 62
     7
100
AcDbLine
 10
2.566099074961615
 20
8.019254890675348
 30
0.0
 11
2.776668956818229
 21
8.019254890675348
 31
0.0
  0
LINE
  5
43
330
1F
100
AcDbEntity
  8
0
  6
Continuous
 62
     7
100
AcDbLine
 10
2.801668956818231
 20
7.994254890675348
 30
0.0
 11
2.801668956818231
 21
7.885960003394568
 31
0.0
  0
LINE
  5
44
330
1F
100
AcDbEntity
  8
0
  6
Continuous
 62
     7
100
AcDbLine
 10
2.801668956818231
 20
7.885960003394568
 30
0.0
 11
2.831521130318397
 21
7.885960003394568
 31
0.0
  0
LINE
  5
45
330
1F
100
AcDbEntity
  8
0
  6
Continuous
 62
     7
100
AcDbLine
 10
2.831521130318397
 20
7.885960003394568
 30
0.0
 11
2.831521130318397
 21
7.84702000210583
 31
0.0
  0
LINE
  5
46
330
1F
100
AcDbEntity
  8
0
  6
Continuous
 62
     7
100
AcDbLine
 10
2.511246901461447
 20
7.885960003394568
 30
0.0
 11
2.511246901461447
 21
7.84702000210583
 31
0.0
  0
LINE
  5
47
330
1F
100
AcDbEntity
  8
0
  6
Continuous
 62
     7
100
AcDbLine
 10
2.541099074961615
 20
7.885960003394568
 30
0.0
 11
2.511246901461447
 21
7.885960003394568
 31
0.0
  0
LINE
  5
48
330
1F
100
AcDbEntity
  8
0
  6
Continuous
 62
     7
100
AcDbLine
 10
2.541099074961615
 20
7.994254890675348
 30
0.0
 11
2.541099074961615
 21
7.885960003394568
 31
0.0
  0
LINE
  5
49
330
1F
100
AcDbEntity
  8
0
  6
Continuous
 62
     7
100
AcDbLine
 10
2.542546973845715
 20
7.356444988203512
 30
0.0
 11
2.566099074961619
 21
7.356444988203509
 31
0.0
  0
LINE
  5
4A
330
1F
100
AcDbEntity
  8
0
  6
Continuous
 62
     7
100
AcDbLine
 10
2.542546973845715
 20
7.643567524668409
 30
0.0
 11
2.470290971291636
 21
7.693005842205412
 31
0.0
  0
LINE
  5
4B
330
1F
100
AcDbEntity
  8
0
  6
Continuous
 62
     7
100
AcDbLine
 10
2.470290971291636
 20
7.693005842205412
 30
0.0
 11
2.445571812523134
 21
7.7823751085223
 31
0.0
  0
LINE
  5
4C
330
1F
100
AcDbEntity
  8
0
  6
Continuous
 62
     7
100
AcDbLine
 10
2.457607802501107
 20
7.823889499330541
 30
0.0
 11
1.786693386826731
 21
7.823889499330541
 31
0.0
  0
LINE
  5
4D
330
1F
100
AcDbEntity
  8
0
  6
Continuous
 62
     7
100
AcDbLine
 10
2.520798336796845
 20
7.814280643723886
 30
0.0
 11
2.566099074961615
 21
7.708217632216796
 31
0.0
  0
LINE
  5
4E
330
1F
100
AcDbEntity
  8
0
  6
Continuous
 62
     7
100
AcDbLine
 10
1.614718624566036
 20
7.99021925391458
 30
0.0
 11
1.614718624566036
 21
7.970780225516565
 31
0.0
  0
LINE
  5
4F
330
1F
100
AcDbEntity
  8
0
  6
Continuous
 62
     7
100
AcDbLine
 10
1.786693386826731
 20
7.823889499330541
 30
0.0
 11
1.786693386826733
 21
7.768276704348584
 31
0.0
  0
LINE
  5
50
330
1F
100
AcDbEntity
  8
0
  6
Continuous
 62
     7
100
AcDbLine
 10
2.497828921431115
 20
7.820594312294398
 30
0.0
 11
2.467975811203474
 21
7.817835594000433
 31
0.0
  0
LINE
  5
51
330
1F
100
AcDbEntity
  8
0
  6
Continuous
 62
     7
100
AcDbLine
 10
2.467975811203474
 20
7.817835594000433
 30
0.0
 11
2.45543837621411
 21
7.790602683014336
 31
0.0
  0
LINE
  5
52
330
1F
100
AcDbEntity
  8
0
  6
Continuous
 62
     7
100
AcDbLine
 10
2.45543837621411
 20
7.790602683014336
 30
0.0
 11
2.472754051452389
 21
7.766128490322205
 31
0.0
  0
LINE
  5
53
330
1F
100
AcDbEntity
  8
0
  6
Continuous
 62
     7
100
AcDbLine
 10
2.472754051452389
 20
7.766128490322205
 30
0.0
 11
2.502607161680031
 21
7.768887208616169
 31
0.0
  0
LINE
  5
54
330
1F
100
AcDbEntity
  8
0
  6
Continuous
 62
     7
100
AcDbLine
 10
2.502607161680031
 20
7.768887208616169
 30
0.0
 11
2.515144596669393
 21
7.796120119602265
 31
0.0
  0
LINE
  5
55
330
1F
100
AcDbEntity
  8
0
  6
Continuous
 62
     7
100
AcDbLine
 10
2.515144596669393
 20
7.796120119602265
 30
0.0
 11
2.497828921431115
 21
7.820594312294398
 31
0.0
  0
LINE
  5
56
330
1F
100
AcDbEntity
  8
0
  6
Continuous
 62
     7
100
AcDbLine
 10
1.786693386826731
 20
7.669823399656713
 30
0.0
 11
1.602479908098937
 21
7.669823399656713
 31
0.0
  0
LINE
  5
57
330
1F
100
AcDbEntity
  8
0
  6
Continuous
 62
     7
100
AcDbLine
 10
1.602479908098937
 20
7.669823399656713
 30
0.0
 11
1.602479908098937
 21
7.823889499330541
 31
0.0
  0
LINE
  5
58
330
1F
100
AcDbEntity
  8
0
  6
Continuous
 62
     7
100
AcDbLine
 10
1.58368742439239
 20
7.823889499330541
 30
0.0
 11
1.786693386826731
 21
7.823889499330541
 31
0.0
  0
LINE
  5
526
330
1F
100
AcDbEntity
  8
0
  6
Continuous
 62
     7
100
AcDbLine
 10
1.58368742439239
 20
7.83936543731335
 30
0.0
 11
1.754935460841043
 21
7.83936543731335
 31
0.0
  0
LINE
  5
527
330
1F
100
AcDbEntity
  8
0
  6
Continuous
 62
     7
100
AcDbLine
 10
1.754935460841043
 20
7.83936543731335
 30
0.0
 11
1.754935460841043
 21
7.823889499330541
 31
0.0
  0
LINE
  5
5B
330
1F
100
AcDbEntity
  8
0
  6
Continuous
 62
     7
100
AcDbLine
 10
1.58368742439239
 20
7.83936543731335
 30
0.0
 11
1.58368742439239
 21
7.823889499330541
 31
0.0
  0
LINE
  5
5C
330
1F
100
AcDbEntity
  8
0
  6
Continuous
 62
     7
100
AcDbLine
 10
1.773774600771707
 20
7.738396658447769
 30
0.0
 11
1.773774600771707
 21
7.669823399656715
 31
0.0
  0
LINE
  5
5D
330
1F
100
AcDbEntity
  8
0
  6
Continuous
 62
     7
100
AcDbLine
 10
1.593059207481619
 20
7.83936543731335
 30
0.0
 11
1.593059207481619
 21
7.874042881965707
 31
0.0
  0
LINE
  5
528
330
1F
100
AcDbEntity
  8
0
  6
Continuous
 62
     7
100
AcDbLine
 10
1.745563677751813
 20
7.83936543731335
 30
0.0
 11
1.745563677751813
 21
7.874042881965707
 31
0.0
  0
LINE
  5
5F
330
1F
100
AcDbEntity
  8
0
  6
Continuous
 62
     7
100
AcDbLine
 10
2.538315353791176
 20
7.40853315886444
 30
0.0
 11
2.538315353791177
 21
7.398533158864441
 31
0.0
  0
LINE
  5
60
330
1F
100
AcDbEntity
  8
0
  6
Continuous
 62
     7
100
AcDbLine
 10
1.60384577447623
 20
8.037511482385959
 30
0.0
 11
1.636541499407397
 21
8.054481392138452
 31
0.0
  0
LINE
  5
61
330
1F
100
AcDbEntity
  8
0
  6
Continuous
 62
     7
100
AcDbLine
 10
2.531408178015163
 20
7.601479354007478
 30
0.0
 11
2.538315353791155
 21
7.601479354007478
 31
0.0
  0
LINE
  5
62
330
1F
100
AcDbEntity
  8
0
  6
Continuous
 62
     7
100
AcDbLine
 10
2.531408178015164
 20
7.591479354007478
 30
0.0
 11
2.538315353791156
 21
7.591479354007478
 31
0.0
  0
LINE
  5
63
330
1F
100
AcDbEntity
  8
0
  6
Continuous
 62
     7
100
AcDbLine
 10
2.531408178015163
 20
7.398533158864443
 30
0.0
 11
2.538315353791177
 21
7.398533158864441
 31
0.0
  0
LINE
  5
64
330
1F
100
AcDbEntity
  8
0
  6
Continuous
 62
     7
100
AcDbLine
 10
2.531408178015163
 20
7.408533158864442
 30
0.0
 11
2.538315353791176
 21
7.40853315886444
 31
0.0
  0
LINE
  5
65
330
1F
100
AcDbEntity
  8
0
  6
Continuous
 62
     7
100
AcDbLine
 10
2.538315353791155
 20
7.601479354007478
 30
0.0
 11
2.538315353791156
 21
7.591479354007478
 31
0.0
  0
LINE
  5
66
330
1F
100
AcDbEntity
  8
0
  6
Continuous
 62
     7
100
AcDbLine
 10
1.636541499407397
 20
8.054481392138452
 30
0.0
 11
1.702081385826036
 21
8.054481392138452
 31
0.0
  0
LINE
  5
67
330
1F
100
AcDbEntity
  8
0
  6
Continuous
 62
     7
100
AcDbLine
 10
1.734777110757203
 20
8.03751148238596
 30
0.0
 11
1.702081385826036
 21
8.054481392138452
 31
0.0
  0
LINE
  5
68
330
1F
100
AcDbEntity
  8
0
  6
Continuous
 62
     7
100
AcDbLine
 10
1.661392422458545
 20
8.054481392138452
 30
0.0
 11
1.661392422458545
 21
8.107023507401269
 31
0.0
  0
LINE
  5
69
330
1F
100
AcDbEntity
  8
0
  6
Continuous
 62
     7
100
AcDbLine
 10
1.661392422458545
 20
8.107023507401269
 30
0.0
 11
1.677230462774889
 21
8.107023507401269
 31
0.0
  0
LINE
  5
6A
330
1F
100
AcDbEntity
  8
0
  6
Continuous
 62
     7
100
AcDbLine
 10
1.677230462774889
 20
8.054481392138452
 30
0.0
 11
1.677230462774889
 21
8.107023507401269
 31
0.0
  0
LINE
  5
529
330
1F
100
AcDbEntity
  8
0
  6
Continuous
 62
     7
100
AcDbLine
 10
1.593059207481619
 20
8.019760069702593
 30
0.0
 11
1.745563677751813
 21
8.019760069702593
 31
0.0
  0
LINE
  5
52A
330
1F
100
AcDbEntity
  8
0
  6
Continuous
 62
     7
100
AcDbLine
 10
1.674179771913587
 20
7.738396658447769
 30
0.0
 11
1.674179771913587
 21
7.669823399656715
 31
0.0
  0
LINE
  5
6D
330
1F
100
AcDbEntity
  8
0
  6
Continuous
 62
     7
100
AcDbLine
 10
1.661260985858562
 20
7.738396658447769
 30
0.0
 11
1.661260985858562
 21
7.669823399656715
 31
0.0
  0
LINE
  5
6E
330
1F
100
AcDbEntity
  8
0
  6
Continuous
 62
     7
100
AcDbLine
 10
1.786693386826733
 20
7.768276704348584
 30
0.0
 11
1.786693386826731
 21
7.669823399656713
 31
0.0
  0
LINE
  5
6F
330
1F
100
AcDbEntity
  8
0
  6
Continuous
 62
     7
100
AcDbLine
 10
1.727912309067106
 20
7.738396658447769
 30
0.0
 11
1.727912309067106
 21
7.669823399656715
 31
0.0
  0
LINE
  5
70
330
1F
100
AcDbEntity
  8
0
  6
Continuous
 62
     7
100
AcDbLine
 10
1.615398694153963
 20
7.738396658447769
 30
0.0
 11
1.615398694153961
 21
7.669823399656715
 31
0.0
  0
LINE
  5
71
330
1F
100
AcDbEntity
  8
0
  6
Continuous
 62
     7
100
AcDbLine
 10
1.714993523012081
 20
7.738396658447769
 30
0.0
 11
1.714993523012082
 21
7.669823399656715
 31
0.0
  0
LINE
  5
72
330
1F
100
AcDbEntity
  8
0
  6
Continuous
 62
     7
100
AcDbLine
 10
1.631121652045261
 20
7.817858469197976
 30
0.0
 11
1.613167696798116
 21
7.814306359957071
 31
0.0
  0
LINE
  5
52B
330
1F
100
AcDbEntity
  8
0
  6
Continuous
 62
     7
100
AcDbLine
 10
1.613167696798116
 20
7.814306359957071
 30
0.0
 11
1.607266936014186
 21
7.796981723994181
 31
0.0
  0
LINE
  5
52C
330
1F
100
AcDbEntity
  8
0
  6
Continuous
 62
     7
100
AcDbLine
 10
1.607266936014186
 20
7.796981723994181
 30
0.0
 11
1.6193201304774
 21
7.783209197272198
 31
0.0
  0
LINE
  5
52D
330
1F
100
AcDbEntity
  8
0
  6
Continuous
 62
     7
100
AcDbLine
 10
1.6193201304774
 20
7.783209197272198
 30
0.0
 11
1.637274085724544
 21
7.786761306513104
 31
0.0
  0
LINE
  5
52E
330
1F
100
AcDbEntity
  8
0
  6
Continuous
 62
     7
100
AcDbLine
 10
1.637274085724544
 20
7.786761306513104
 30
0.0
 11
1.643174846508475
 21
7.804085942475994
 31
0.0
  0
LINE
  5
77
330
1F
100
AcDbEntity
  8
0
  6
Continuous
 62
     7
100
AcDbLine
 10
1.643174846508475
 20
7.804085942475994
 30
0.0
 11
1.631121652045261
 21
7.817858469197976
 31
0.0
  0
LINE
  5
78
330
1F
100
AcDbEntity
  8
0
  6
Continuous
 62
     7
100
AcDbLine
 10
1.746691227512671
 20
7.817858469197976
 30
0.0
 11
1.729179223928996
 21
7.813540877221452
 31
0.0
  0
LINE
  5
79
330
1F
100
AcDbEntity
  8
0
  6
Continuous
 62
     7
100
AcDbLine
 10
1.729179223928996
 20
7.813540877221452
 30
0.0
 11
1.724162366472002
 21
7.796216241258564
 31
0.0
  0
LINE
  5
7A
330
1F
100
AcDbEntity
  8
0
  6
Continuous
 62
     7
100
AcDbLine
 10
1.724162366472002
 20
7.796216241258564
 30
0.0
 11
1.736657512598684
 21
7.783209197272198
 31
0.0
  0
LINE
  5
7B
330
1F
100
AcDbEntity
  8
0
  6
Continuous
 62
     7
100
AcDbLine
 10
1.736657512598684
 20
7.783209197272198
 30
0.0
 11
1.754169516182361
 21
7.787526789248721
 31
0.0
  0
LINE
  5
7C
330
1F
100
AcDbEntity
  8
0
  6
Continuous
 62
     7
100
AcDbLine
 10
1.754169516182361
 20
7.787526789248721
 30
0.0
 11
1.759186373639354
 21
7.804851425211611
 31
0.0
  0
LINE
  5
7D
330
1F
100
AcDbEntity
  8
0
  6
Continuous
 62
     7
100
AcDbLine
 10
1.759186373639354
 20
7.804851425211611
 30
0.0
 11
1.746691227512671
 21
7.817858469197976
 31
0.0
  0
LINE
  5
7E
330
1F
100
AcDbEntity
  8
0
  6
Continuous
 62
     7
100
AcDbLine
 10
1.60384577447623
 20
8.037511482385959
 30
0.0
 11
1.734777110757203
 21
8.03751148238596
 31
0.0
  0
LINE
  5
87
330
1F
100
AcDbEntity
  8
0
  6
Continuous
 62
     7
100
AcDbLine
 10
1.593059207481619
 20
7.874042881965707
 30
0.0
 11
1.660680124601126
 21
7.874042881965707
 31
0.0
  0
LINE
  5
88
330
1F
100
AcDbEntity
  8
0
  6
Continuous
 62
     7
100
AcDbLine
 10
1.593059207481619
 20
7.887490503498568
 30
0.0
 11
1.643581779816594
 21
7.887490503498568
 31
0.0
  0
LINE
  5
89
330
1F
100
AcDbEntity
  8
0
  6
Continuous
 62
     7
100
AcDbLine
 10
1.614718624566036
 20
7.970780225516565
 30
0.0
 11
1.643581779816596
 21
7.970780225516565
 31
0.0
  0
LINE
  5
8A
330
1F
100
AcDbEntity
  8
0
  6
Continuous
 62
     7
100
AcDbLine
 10
1.736597286877922
 20
7.887490503498568
 30
0.0
 11
1.736597286877922
 21
7.874042881965707
 31
0.0
  0
LINE
  5
8B
330
1F
100
AcDbEntity
  8
0
  6
Continuous
 62
     7
100
AcDbLine
 10
1.602025598355511
 20
7.887490503498568
 30
0.0
 11
1.602025598355511
 21
7.874042881965707
 31
0.0
  0
LINE
  5
8C
330
1F
100
AcDbEntity
  8
0
  6
Continuous
 62
     7
100
AcDbLine
 10
1.745563677751813
 20
7.887490503498568
 30
0.0
 11
1.745563677751813
 21
8.019760069702593
 31
0.0
  0
LINE
  5
8D
330
1F
100
AcDbEntity
  8
0
  6
Continuous
 62
     7
100
AcDbLine
 10
1.593059207481619
 20
7.887490503498568
 30
0.0
 11
1.593059207481619
 21
8.019760069702593
 31
0.0
  0
LINE
  5
8E
330
1F
100
AcDbEntity
  8
0
  6
Continuous
 62
     7
100
AcDbLine
 10
1.614718624566036
 20
7.99021925391458
 30
0.0
 11
1.662016756056613
 21
7.99021925391458
 31
0.0
  0
LINE
  5
8F
330
1F
100
AcDbEntity
  8
0
  6
Continuous
 62
     7
100
AcDbLine
 10
1.662016756056613
 20
7.99021925391458
 30
0.0
 11
1.662016756056613
 21
7.974062436776018
 31
0.0
  0
LINE
  5
90
330
1F
100
AcDbEntity
  8
0
  6
Continuous
 62
     7
100
AcDbLine
 10
1.662016756056613
 20
7.974062436776018
 30
0.0
 11
1.696390280720415
 21
7.974062436776018
 31
0.0
  0
LINE
  5
91
330
1F
100
AcDbEntity
  8
0
  6
Continuous
 62
     7
100
AcDbLine
 10
1.696390280720415
 20
7.974062436776018
 30
0.0
 11
1.696390280720415
 21
7.961580236334886
 31
0.0
  0
LINE
  5
52F
330
1F
100
AcDbEntity
  8
0
  6
Continuous
 62
     7
100
AcDbLine
 10
1.696390280720415
 20
7.961580236334886
 30
0.0
 11
1.661440119485252
 21
7.961580236334888
 31
0.0
  0
LINE
  5
530
330
1F
100
AcDbEntity
  8
0
  6
Continuous
 62
     7
100
AcDbLine
 10
1.661440119485252
 20
7.961580236334888
 30
0.0
 11
1.661440119485252
 21
7.942856935673193
 31
0.0
  0
LINE
  5
94
330
1F
100
AcDbEntity
  8
0
  6
Continuous
 62
     7
100
AcDbLine
 10
1.661440119485252
 20
7.942856935673193
 30
0.0
 11
1.696390280720415
 21
7.942856935673193
 31
0.0
  0
LINE
  5
95
330
1F
100
AcDbEntity
  8
0
  6
Continuous
 62
     7
100
AcDbLine
 10
1.696390280720415
 20
7.942856935673193
 30
0.0
 11
1.696390280720415
 21
7.9307908085801
 31
0.0
  0
LINE
  5
9B
330
1F
100
AcDbEntity
  8
0
  6
Continuous
 62
     7
100
AcDbLine
 10
1.696390280720415
 20
7.9307908085801
 30
0.0
 11
1.661440119485252
 21
7.930790808580097
 31
0.0
  0
LINE
  5
9C
330
1F
100
AcDbEntity
  8
0
  6
Continuous
 62
     7
100
AcDbLine
 10
1.661440119485252
 20
7.930790808580097
 30
0.0
 11
1.661440119485252
 21
7.887490503498568
 31
0.0
  0
LINE
  5
9D
330
1F
100
AcDbEntity
  8
0
  6
Continuous
 62
     7
100
AcDbLine
 10
1.786693386826733
 20
7.754921963372463
 30
0.0
 11
2.453165235649689
 21
7.754921963372462
 31
0.0
  0
LINE
  5
9E
330
1F
100
AcDbEntity
  8
0
  6
Continuous
 62
     7
100
AcDbLine
 10
1.643581779816596
 20
7.970780225516565
 30
0.0
 11
1.643581779816596
 21
7.959234963416342
 31
0.0
  0
LINE
  5
A7
330
1F
100
AcDbEntity
  8
0
  6
Continuous
 62
     7
100
AcDbLine
 10
4.804974602116542
 20
4.143099045505634
 30
0.0
 11
4.754335451497778
 21
4.259103645889622
 31
0.0
  0
LINE
  5
A8
330
1F
100
AcDbEntity
  8
0
  6
Continuous
 62
     7
100
AcDbLine
 10
4.754335451497778
 20
4.259103645889622
 30
0.0
 11
4.754335451497778
 21
4.339263955039852
 31
0.0
  0
LINE
  5
A9
330
1F
100
AcDbEntity
  8
0
  6
Continuous
 62
     7
100
AcDbLine
 10
4.754335451497778
 20
4.339263955039852
 30
0.0
 11
4.764156969406369
 21
4.262427918842127
 31
0.0
  0
LINE
  5
AA
330
1F
100
AcDbEntity
  8
0
  6
Continuous
 62
     7
100
AcDbLine
 10
4.764156969406369
 20
4.262427918842127
 30
0.0
 11
4.818302218351061
 21
4.143099045505634
 31
0.0
  0
LINE
  5
AB
330
1F
100
AcDbEntity
  8
0
  6
Continuous
 62
     7
100
AcDbLine
 10
3.300412544433724
 20
4.075128000155327
 30
0.0
 11
3.300412544433724
 21
4.034517760728649
 31
0.0
  0
LINE
  5
AC
330
1F
100
AcDbEntity
  8
0
  6
Continuous
 62
     7
100
AcDbLine
 10
3.300412544433724
 20
4.034517760728649
 30
0.0
 11
3.319363989499509
 21
4.075128000155327
 31
0.0
  0
LINE
  5
AD
330
1F
100
AcDbEntity
  8
0
  6
Continuous
 62
     7
100
AcDbLine
 10
3.319363989499509
 20
4.075128000155327
 30
0.0
 11
3.300412544433724
 21
4.075128000155327
 31
0.0
  0
LINE
  5
AE
330
1F
100
AcDbEntity
  8
0
  6
Continuous
 62
     7
100
AcDbLine
 10
3.150382208771842
 20
3.966033450215732
 30
0.0
 11
3.154913281702556
 21
3.951307463190908
 31
0.0
  0
LINE
  5
AF
330
1F
100
AcDbEntity
  8
0
  6
Continuous
 62
     7
100
AcDbLine
 10
3.154913281702556
 20
3.951307463190908
 30
0.0
 11
3.173037573425416
 21
3.966033450215732
 31
0.0
  0
LINE
  5
B0
330
1F
100
AcDbEntity
  8
0
  6
Continuous
 62
     7
100
AcDbLine
 10
3.150382208771842
 20
3.966033450215732
 30
0.0
 11
3.173037573425416
 21
3.966033450215732
 31
0.0
  0
LINE
  5
B1
330
1F
100
AcDbEntity
  8
0
  6
Continuous
 62
     7
100
AcDbLine
 10
3.336156198931154
 20
3.926386562071976
 30
0.0
 11
3.328226821302402
 21
3.905996733883759
 31
0.0
  0
LINE
  5
B2
330
1F
100
AcDbEntity
  8
0
  6
Continuous
 62
     7
100
AcDbLine
 10
3.328226821302402
 20
3.905996733883759
 30
0.0
 11
3.356546027119371
 21
3.905996733883759
 31
0.0
  0
LINE
  5
B3
330
1F
100
AcDbEntity
  8
0
  6
Continuous
 62
     7
100
AcDbLine
 10
3.336156198931154
 20
3.926386562071976
 30
0.0
 11
3.356546027119371
 21
3.905996733883759
 31
0.0
  0
LINE
  5
B4
330
1F
100
AcDbEntity
  8
0
  6
Continuous
 62
     7
100
AcDbLine
 10
3.229675985059353
 20
3.835765103457677
 30
0.0
 11
3.229675985059353
 21
3.801782056477316
 31
0.0
  0
LINE
  5
B5
330
1F
100
AcDbEntity
  8
0
  6
Continuous
 62
     7
100
AcDbLine
 10
3.229675985059353
 20
3.801782056477316
 30
0.0
 11
3.242136435618819
 21
3.801782056477316
 31
0.0
  0
LINE
  5
B6
330
1F
100
AcDbEntity
  8
0
  6
Continuous
 62
     7
100
AcDbLine
 10
3.242136435618819
 20
3.801782056477316
 30
0.0
 11
3.229675985059353
 21
3.835765103457677
 31
0.0
  0
LINE
  5
B7
330
1F
100
AcDbEntity
  8
0
  6
Continuous
 62
     7
100
AcDbLine
 10
3.017101977446736
 20
3.771647680919754
 30
0.0
 11
3.034645600879061
 21
3.719016810622778
 31
0.0
  0
LINE
  5
B8
330
1F
100
AcDbEntity
  8
0
  6
Continuous
 62
     7
100
AcDbLine
 10
3.017101977446736
 20
3.771647680919754
 30
0.0
 11
3.052189224311387
 21
3.745332245771266
 31
0.0
  0
LINE
  5
B9
330
1F
100
AcDbEntity
  8
0
  6
Continuous
 62
     7
100
AcDbLine
 10
3.052189224311387
 20
3.745332245771266
 30
0.0
 11
3.034645600879061
 21
3.719016810622778
 31
0.0
  0
LINE
  5
BA
330
1F
100
AcDbEntity
  8
0
  6
Continuous
 62
     7
100
AcDbLine
 10
3.194731164699029
 20
3.670771846183884
 30
0.0
 11
3.188152305911907
 21
3.618140975886907
 31
0.0
  0
LINE
  5
BB
330
1F
100
AcDbEntity
  8
0
  6
Continuous
 62
     7
100
AcDbLine
 10
3.194731164699029
 20
3.670771846183884
 30
0.0
 11
3.218853646918478
 21
3.637877552248274
 31
0.0
  0
LINE
  5
BC
330
1F
100
AcDbEntity
  8
0
  6
Continuous
 62
     7
100
AcDbLine
 10
3.188152305911907
 20
3.618140975886907
 30
0.0
 11
3.218853646918478
 21
3.637877552248274
 31
0.0
  0
LINE
  5
BD
330
1F
100
AcDbEntity
  8
0
  6
Continuous
 62
     7
100
AcDbLine
 10
2.918419095639906
 20
4.043573844120796
 30
0.0
 11
2.918419095639906
 21
3.99094297382382
 31
0.0
  0
LINE
  5
BE
330
1F
100
AcDbEntity
  8
0
  6
Continuous
 62
     7
100
AcDbLine
 10
2.918419095639906
 20
4.043573844120796
 30
0.0
 11
2.946927483717434
 21
3.99094297382382
 31
0.0
  0
LINE
  5
BF
330
1F
100
AcDbEntity
  8
0
  6
Continuous
 62
     7
100
AcDbLine
 10
2.946927483717434
 20
3.99094297382382
 30
0.0
 11
2.918419095639906
 21
3.99094297382382
 31
0.0
  0
LINE
  5
C0
330
1F
100
AcDbEntity
  8
0
  6
Continuous
 62
     7
100
AcDbLine
 10
2.876752989988133
 20
3.607176211241704
 30
0.0
 11
2.876752989988133
 21
3.556738293873769
 31
0.0
  0
LINE
  5
C1
330
1F
100
AcDbEntity
  8
0
  6
Continuous
 62
     7
100
AcDbLine
 10
2.876752989988133
 20
3.607176211241704
 30
0.0
 11
2.900875472207581
 21
3.556738293873769
 31
0.0
  0
LINE
  5
C2
330
1F
100
AcDbEntity
  8
0
  6
Continuous
 62
     7
100
AcDbLine
 10
2.876752989988133
 20
3.556738293873769
 30
0.0
 11
2.900875472207581
 21
3.556738293873769
 31
0.0
  0
LINE
  5
C3
330
1F
100
AcDbEntity
  8
0
  6
Continuous
 62
     7
100
AcDbLine
 10
3.416219410532137
 20
3.556738293873769
 30
0.0
 11
3.396482834170771
 21
3.52822990579624
 31
0.0
  0
LINE
  5
C4
330
1F
100
AcDbEntity
  8
0
  6
Continuous
 62
     7
100
AcDbLine
 10
3.416219410532137
 20
3.556738293873769
 30
0.0
 11
3.416219410532137
 21
3.497528564789671
 31
0.0
  0
LINE
  5
C5
330
1F
100
AcDbEntity
  8
0
  6
Continuous
 62
     7
100
AcDbLine
 10
3.396482834170771
 20
3.52822990579624
 30
0.0
 11
3.416219410532137
 21
3.497528564789671
 31
0.0
  0
LINE
  5
C6
330
1F
100
AcDbEntity
  8
0
  6
Continuous
 62
     7
100
AcDbLine
 10
2.404309224092868
 20
4.049203293809977
 30
0.0
 11
2.394458811871395
 21
4.003891397591203
 31
0.0
  0
LINE
  5
C7
330
1F
100
AcDbEntity
  8
0
  6
Continuous
 62
     7
100
AcDbLine
 10
2.404309224092868
 20
4.049203293809977
 30
0.0
 11
2.422039966091519
 21
4.01965205714556
 31
0.0
  0
LINE
  5
C8
330
1F
100
AcDbEntity
  8
0
  6
Continuous
 62
     7
100
AcDbLine
 10
2.422039966091519
 20
4.01965205714556
 30
0.0
 11
2.394458811871395
 21
4.003891397591203
 31
0.0
  0
LINE
  5
CD
330
1F
100
AcDbEntity
  8
0
  6
Continuous
 62
     7
100
AcDbLine
 10
2.476472256251795
 20
3.726283817038903
 30
0.0
 11
2.464559904981264
 21
3.706790878596214
 31
0.0
  0
LINE
  5
CE
330
1F
100
AcDbEntity
  8
0
  6
Continuous
 62
     7
100
AcDbLine
 10
2.476472256251795
 20
3.726283817038903
 30
0.0
 11
2.476472256251795
 21
3.677551470932181
 31
0.0
  0
LINE
  5
CF
330
1F
100
AcDbEntity
  8
0
  6
Continuous
 62
     7
100
AcDbLine
 10
2.464559904981264
 20
3.706790878596214
 30
0.0
 11
2.476472256251795
 21
3.677551470932181
 31
0.0
  0
LINE
  5
D0
330
1F
100
AcDbEntity
  8
0
  6
Continuous
 62
     7
100
AcDbLine
 10
2.123433482234206
 20
3.643980299169772
 30
0.0
 11
2.130188486131144
 21
3.627399835059108
 31
0.0
  0
LINE
  5
D1
330
1F
100
AcDbEntity
  8
0
  6
Continuous
 62
     7
100
AcDbLine
 10
2.123433482234206
 20
3.643980299169772
 30
0.0
 11
2.145930626483945
 21
3.653145802382629
 31
0.0
  0
LINE
  5
D2
330
1F
100
AcDbEntity
  8
0
  6
Continuous
 62
     7
100
AcDbLine
 10
2.130188486131144
 20
3.627399835059108
 30
0.0
 11
2.145930626483945
 21
3.653145802382629
 31
0.0
  0
LINE
  5
D3
330
1F
100
AcDbEntity
  8
0
  6
Continuous
 62
     7
100
AcDbLine
 10
2.230644643668996
 20
3.794509101588315
 30
0.0
 11
2.221981115472245
 21
3.759854988801313
 31
0.0
  0
LINE
  5
D4
330
1F
100
AcDbEntity
  8
0
  6
Continuous
 62
     7
100
AcDbLine
 10
2.230644643668996
 20
3.794509101588315
 30
0.0
 11
2.239308171865746
 21
3.768518516998063
 31
0.0
  0
LINE
  5
D5
330
1F
100
AcDbEntity
  8
0
  6
Continuous
 62
     7
100
AcDbLine
 10
2.221981115472245
 20
3.759854988801313
 30
0.0
 11
2.239308171865746
 21
3.768518516998063
 31
0.0
  0
LINE
  5
D6
330
1F
100
AcDbEntity
  8
0
  6
Continuous
 62
     7
100
AcDbLine
 10
2.205737000103338
 20
3.997019073187361
 30
0.0
 11
2.190142649349186
 21
3.989221897810286
 31
0.0
  0
LINE
  5
D7
330
1F
100
AcDbEntity
  8
0
  6
Continuous
 62
     7
100
AcDbLine
 10
2.205737000103338
 20
3.997019073187361
 30
0.0
 11
2.205737000103338
 21
3.972111429621703
 31
0.0
  0
LINE
  5
D8
330
1F
100
AcDbEntity
  8
0
  6
Continuous
 62
     7
100
AcDbLine
 10
2.190142649349186
 20
3.989221897810286
 30
0.0
 11
2.205737000103338
 21
3.972111429621703
 31
0.0
  0
LINE
  5
D9
330
1F
100
AcDbEntity
  8
0
  6
Continuous
 62
     7
100
AcDbLine
 10
1.970738797766477
 20
3.907134968146073
 30
0.0
 11
1.970738797766477
 21
3.884393206629603
 31
0.0
  0
LINE
  5
DA
330
1F
100
AcDbEntity
  8
0
  6
Continuous
 62
     7
100
AcDbLine
 10
1.970738797766477
 20
3.907134968146073
 30
0.0
 11
1.946914095225412
 21
3.895222616875541
 31
0.0
  0
LINE
  5
DB
330
1F
100
AcDbEntity
  8
0
  6
Continuous
 62
     7
100
AcDbLine
 10
1.970738797766477
 20
3.884393206629603
 30
0.0
 11
1.946914095225412
 21
3.895222616875541
 31
0.0
  0
LINE
  5
DC
330
1F
100
AcDbEntity
  8
0
  6
Continuous
 62
     7
100
AcDbLine
 10
2.066037607930733
 20
4.082571414130272
 30
0.0
 11
2.057247983861257
 21
4.063234241177424
 31
0.0
  0
LINE
  5
DD
330
1F
100
AcDbEntity
  8
0
  6
Continuous
 62
     7
100
AcDbLine
 10
2.066037607930733
 20
4.082571414130272
 30
0.0
 11
2.066037607930733
 21
4.063234241177421
 31
0.0
  0
LINE
  5
DE
330
1F
100
AcDbEntity
  8
0
  6
Continuous
 62
     7
100
AcDbLine
 10
2.057247983861257
 20
4.063234241177424
 30
0.0
 11
2.066037607930733
 21
4.063234241177421
 31
0.0
  0
LINE
  5
DF
330
1F
100
AcDbEntity
  8
0
  6
Continuous
 62
     7
100
AcDbLine
 10
1.897098808094097
 20
3.675385588882993
 30
0.0
 11
1.897098808094097
 21
3.634233829948428
 31
0.0
  0
LINE
  5
E0
330
1F
100
AcDbEntity
  8
0
  6
Continuous
 62
     7
100
AcDbLine
 10
1.897098808094097
 20
3.675385588882993
 30
0.0
 11
1.905762336290847
 21
3.658058532489492
 31
0.0
  0
LINE
  5
E1
330
1F
100
AcDbEntity
  8
0
  6
Continuous
 62
     7
100
AcDbLine
 10
3.956668890795808
 20
4.148361156886251
 30
0.0
 11
4.014017601077068
 21
4.213456952914603
 31
0.0
  0
LINE
  5
E2
330
1F
100
AcDbEntity
  8
0
  6
Continuous
 62
     7
100
AcDbLine
 10
4.014017601077068
 20
4.213456952914603
 30
0.0
 11
4.014017601077068
 21
4.272841480694899
 31
0.0
  0
LINE
  5
E3
330
1F
100
AcDbEntity
  8
0
  6
Continuous
 62
     7
100
AcDbLine
 10
4.014017601077068
 20
4.272841480694899
 30
0.0
 11
4.022750444142173
 21
4.195990915332166
 31
0.0
  0
LINE
  5
E4
330
1F
100
AcDbEntity
  8
0
  6
Continuous
 62
     7
100
AcDbLine
 10
4.022750444142173
 20
4.195990915332166
 30
0.0
 11
3.971280611842841
 21
4.148361156886251
 31
0.0
  0
LINE
  5
E5
330
1F
100
AcDbEntity
  8
0
  6
Continuous
 62
     7
100
AcDbLine
 10
1.897098808094097
 20
3.634233829948428
 30
0.0
 11
1.905762336290847
 21
3.658058532489492
 31
0.0
  0
LINE
  5
E6
330
1F
100
AcDbEntity
  8
0
  6
Continuous
 62
     7
100
AcDbLine
 10
2.358431684571068
 20
3.57250619154658
 30
0.0
 11
2.32810933588244
 21
3.541100901833358
 31
0.0
  0
LINE
  5
E7
330
1F
100
AcDbEntity
  8
0
  6
Continuous
 62
     7
100
AcDbLine
 10
2.358431684571068
 20
3.57250619154658
 30
0.0
 11
2.358431684571068
 21
3.551930312079297
 31
0.0
  0
LINE
  5
E8
330
1F
100
AcDbEntity
  8
0
  6
Continuous
 62
     7
100
AcDbLine
 10
2.32810933588244
 20
3.541100901833358
 30
0.0
 11
2.358431684571068
 21
3.551930312079297
 31
0.0
  0
LINE
  5
E9
330
1F
100
AcDbEntity
  8
0
  6
Continuous
 62
     7
100
AcDbLine
 10
3.554784909522158
 20
3.423962875187817
 30
0.0
 11
3.517425999038547
 21
3.266203427867623
 31
0.0
  0
LINE
  5
EA
330
1F
100
AcDbEntity
  8
0
  6
Continuous
 62
     7
100
AcDbLine
 10
3.517425999038547
 20
3.266203427867623
 30
0.0
 11
3.559994776100844
 21
3.165102582344668
 31
0.0
  0
LINE
  5
EB
330
1F
100
AcDbEntity
  8
0
  6
Continuous
 62
     7
100
AcDbLine
 10
2.990170154773592
 20
3.165102582344668
 30
0.0
 11
3.777053713255209
 21
3.165102582344668
 31
0.0
  0
LINE
  5
EC
330
1F
100
AcDbEntity
  8
0
  6
Continuous
 62
     7
100
AcDbLine
 10
3.517425999038547
 20
2.809203756507841
 30
0.0
 11
3.5760334115577
 21
2.732224780470887
 31
0.0
  0
LINE
  5
ED
330
1F
100
AcDbEntity
  8
0
  6
Continuous
 62
     7
100
AcDbLine
 10
3.5760334115577
 20
2.732224780470887
 30
0.0
 11
3.546729705298124
 21
2.618265922794754
 31
0.0
  0
LINE
  5
EE
330
1F
100
AcDbEntity
  8
0
  6
Continuous
 62
     7
100
AcDbLine
 10
3.546729705298124
 20
2.618265922794754
 30
0.0
 11
1.798275231810032
 21
2.618265922794754
 31
0.0
  0
LINE
  5
EF
330
1F
100
AcDbEntity
  8
0
  6
Continuous
 62
     7
100
AcDbLine
 10
1.787983122257686
 20
3.423962875187817
 30
0.0
 11
1.824322970707435
 21
3.30201906885155
 31
0.0
  0
LINE
  5
F0
330
1F
100
AcDbEntity
  8
0
  6
Continuous
 62
     7
100
AcDbLine
 10
1.824322970707435
 20
3.30201906885155
 30
0.0
 11
1.75269168873958
 21
3.051309581964058
 31
0.0
  0
LINE
  5
F1
330
1F
100
AcDbEntity
  8
0
  6
Continuous
 62
     7
100
AcDbLine
 10
1.75269168873958
 20
3.051309581964058
 30
0.0
 11
1.869906513777888
 21
2.797344127714392
 31
0.0
  0
LINE
  5
F2
330
1F
100
AcDbEntity
  8
0
  6
Continuous
 62
     7
100
AcDbLine
 10
1.869906513777888
 20
2.797344127714392
 30
0.0
 11
1.798275231810032
 21
2.618265922794754
 31
0.0
  0
LINE
  5
F3
330
1F
100
AcDbEntity
  8
0
  6
Continuous
 62
     7
100
AcDbLine
 10
3.777053713255209
 20
3.165102582344668
 30
0.0
 11
3.777053713255209
 21
2.955102582344669
 31
0.0
  0
LINE
  5
F4
330
1F
100
AcDbEntity
  8
0
  6
Continuous
 62
     7
100
AcDbLine
 10
3.559432642985171
 20
2.955102582344669
 30
0.0
 11
3.517425999038547
 21
2.809203756507841
 31
0.0
  0
LINE
  5
F5
330
1F
100
AcDbEntity
  8
0
  6
Continuous
 62
     7
100
AcDbLine
 10
2.566099074961615
 20
7.841461429104011
 30
0.0
 11
2.776668956818231
 21
7.841461429104011
 31
0.0
  0
LINE
  5
F6
330
1F
100
AcDbEntity
  8
0
  6
Continuous
 62
     7
100
AcDbLine
 10
2.990170154773592
 20
2.955102582344669
 30
0.0
 11
3.777053713255209
 21
2.955102582344669
 31
0.0
  0
LINE
  5
F7
330
1F
100
AcDbEntity
  8
0
  6
Continuous
 62
     7
100
AcDbLine
 10
2.525228757234771
 20
3.378888721228344
 30
0.0
 11
2.525228757234771
 21
3.346632240563964
 31
0.0
  0
LINE
  5
F8
330
1F
100
AcDbEntity
  8
0
  6
Continuous
 62
     7
100
AcDbLine
 10
2.817539274545073
 20
3.378888721228344
 30
0.0
 11
2.817539274545073
 21
3.346632240563964
 31
0.0
  0
LINE
  5
F9
330
1F
100
AcDbEntity
  8
0
  6
Continuous
 62
     7
100
AcDbLine
 10
2.566099074961615
 20
7.831461429104011
 30
0.0
 11
2.776668956818231
 21
7.831461429104011
 31
0.0
  0
LINE
  5
FA
330
1F
100
AcDbEntity
  8
0
  6
Continuous
 62
     7
100
AcDbLine
 10
2.990170154773596
 20
3.20625784099982
 30
0.0
 11
2.990170154773592
 21
2.913947323689517
 31
0.0
  0
LINE
  5
FB
330
1F
100
AcDbEntity
  8
0
  6
Continuous
 62
     7
100
AcDbLine
 10
2.957913674109213
 20
2.913947323689518
 30
0.0
 11
2.957913674109216
 21
3.206257840999821
 31
0.0
  0
LINE
  5
FC
330
1F
100
AcDbEntity
  8
0
  6
Continuous
 62
     7
100
AcDbLine
 10
2.990170154773596
 20
3.20625784099982
 30
0.0
 11
2.957913674109216
 21
3.206257840999821
 31
0.0
  0
LINE
  5
FD
330
1F
100
AcDbEntity
  8
0
  6
Continuous
 62
     7
100
AcDbLine
 10
2.990170154773592
 20
2.913947323689517
 30
0.0
 11
2.957913674109213
 21
2.913947323689518
 31
0.0
  0
LINE
  5
FE
330
1F
100
AcDbEntity
  8
0
  6
Continuous
 62
     7
100
AcDbLine
 10
2.525228757234771
 20
3.346632240563964
 30
0.0
 11
2.817539274545073
 21
3.346632240563964
 31
0.0
  0
LINE
  5
FF
330
1F
100
AcDbEntity
  8
0
  6
Continuous
 62
     7
100
AcDbLine
 10
2.566099074961615
 20
3.423962875187817
 30
0.0
 11
2.566099074961615
 21
7.84702000210583
 31
0.0
  0
LINE
  5
100
330
1F
100
AcDbEntity
  8
0
  6
Continuous
 62
     7
100
AcDbLine
 10
2.566099074961615
 20
7.821461429104011
 30
0.0
 11
2.776668956818231
 21
7.821461429104011
 31
0.0
  0
LINE
  5
101
330
1F
100
AcDbEntity
  8
0
  6
Continuous
 62
     7
100
AcDbLine
 10
2.566099074961615
 20
7.811461429104012
 30
0.0
 11
2.776668956818231
 21
7.811461429104012
 31
0.0
  0
LINE
  5
102
330
1F
100
AcDbEntity
  8
0
  6
Continuous
 62
     7
100
AcDbLine
 10
2.566099074961615
 20
7.80146142910401
 30
0.0
 11
2.776668956818231
 21
7.80146142910401
 31
0.0
  0
LINE
  5
103
330
1F
100
AcDbEntity
  8
0
  6
Continuous
 62
     7
100
AcDbLine
 10
2.566099074961615
 20
3.389255662122154
 30
0.0
 11
2.776668956818231
 21
3.389255662122154
 31
0.0
  0
LINE
  5
104
330
1F
100
AcDbEntity
  8
0
  6
Continuous
 62
     7
100
AcDbLine
 10
2.566099074961615
 20
3.399255662122155
 30
0.0
 11
2.776668956818231
 21
3.399255662122155
 31
0.0
  0
LINE
  5
105
330
1F
100
AcDbEntity
  8
0
  6
Continuous
 62
     7
100
AcDbLine
 10
2.566099074961615
 20
3.409255662122155
 30
0.0
 11
2.776668956818231
 21
3.409255662122155
 31
0.0
  0
LINE
  5
106
330
1F
100
AcDbEntity
  8
0
  6
Continuous
 62
     7
100
AcDbLine
 10
2.566099074961615
 20
3.419255662122155
 30
0.0
 11
2.776668956818231
 21
3.419255662122155
 31
0.0
  0
LINE
  5
107
330
1F
100
AcDbEntity
  8
0
  6
Continuous
 62
     7
100
AcDbLine
 10
2.566099074961615
 20
3.429255662122155
 30
0.0
 11
2.776668956818231
 21
3.429255662122155
 31
0.0
  0
LINE
  5
108
330
1F
100
AcDbEntity
  8
0
  6
Continuous
 62
     7
100
AcDbLine
 10
2.998617266546244
 20
3.165102582344668
 30
0.0
 11
2.998617266546244
 21
2.955102582344669
 31
0.0
  0
LINE
  5
109
330
1F
100
AcDbEntity
  8
0
  6
Continuous
 62
     7
100
AcDbLine
 10
3.008617266546245
 20
3.165102582344668
 30
0.0
 11
3.008617266546245
 21
2.955102582344669
 31
0.0
  0
LINE
  5
10A
330
1F
100
AcDbEntity
  8
0
  6
Continuous
 62
     7
100
AcDbLine
 10
3.018617266546245
 20
3.165102582344668
 30
0.0
 11
3.018617266546245
 21
2.955102582344669
 31
0.0
  0
LINE
  5
10B
330
1F
100
AcDbEntity
  8
0
  6
Continuous
 62
     7
100
AcDbLine
 10
3.028617266546245
 20
3.165102582344668
 30
0.0
 11
3.028617266546245
 21
2.955102582344669
 31
0.0
  0
LINE
  5
10C
330
1F
100
AcDbEntity
  8
0
  6
Continuous
 62
     7
100
AcDbLine
 10
3.038617266546245
 20
3.165102582344668
 30
0.0
 11
3.038617266546245
 21
2.955102582344669
 31
0.0
  0
LINE
  5
10D
330
1F
100
AcDbEntity
  8
0
  6
Continuous
 62
     7
100
AcDbLine
 10
3.768922156518084
 20
4.143974930784294
 30
0.0
 11
3.804914651596218
 21
4.179967425862414
 31
0.0
  0
LINE
  5
10E
330
1F
100
AcDbEntity
  8
0
  6
Continuous
 62
     7
100
AcDbLine
 10
3.804914651596218
 20
4.179967425862414
 30
0.0
 11
3.828909648314959
 21
4.227957419299897
 31
0.0
  0
LINE
  5
10F
330
1F
100
AcDbEntity
  8
0
  6
Continuous
 62
     7
100
AcDbLine
 10
3.828909648314959
 20
4.227957419299897
 30
0.0
 11
3.828909648314959
 21
4.287944911096763
 31
0.0
  0
LINE
  5
110
330
1F
100
AcDbEntity
  8
0
  6
Continuous
 62
     7
100
AcDbLine
 10
3.828909648314959
 20
4.287944911096763
 30
0.0
 11
3.840907146674322
 21
4.227957419299897
 31
0.0
  0
LINE
  5
111
330
1F
100
AcDbEntity
  8
0
  6
Continuous
 62
     7
100
AcDbLine
 10
3.840907146674322
 20
4.227957419299897
 30
0.0
 11
3.816912149955581
 21
4.179967425862414
 31
0.0
  0
LINE
  5
112
330
1F
100
AcDbEntity
  8
0
  6
Continuous
 62
     7
100
AcDbLine
 10
3.816912149955581
 20
4.179967425862414
 30
0.0
 11
3.789260864688
 21
4.143099045505634
 31
0.0
  0
LINE
  5
113
330
1F
100
AcDbEntity
  8
0
  6
Continuous
 62
     7
100
AcDbLine
 10
3.744927159799343
 20
4.143974930784294
 30
0.0
 11
3.756924658158721
 21
4.203962422581161
 31
0.0
  0
LINE
  5
114
330
1F
100
AcDbEntity
  8
0
  6
Continuous
 62
     7
100
AcDbLine
 10
3.756924658158721
 20
4.203962422581161
 30
0.0
 11
3.744927159799343
 21
4.263949914378015
 31
0.0
  0
LINE
  5
115
330
1F
100
AcDbEntity
  8
0
  6
Continuous
 62
     7
100
AcDbLine
 10
3.744927159799343
 20
4.263949914378015
 30
0.0
 11
3.744927159799343
 21
4.311939907815514
 31
0.0
  0
LINE
  5
116
330
1F
100
AcDbEntity
  8
0
  6
Continuous
 62
     7
100
AcDbLine
 10
3.744927159799343
 20
4.311939907815514
 30
0.0
 11
3.756924658158721
 21
4.263949914378015
 31
0.0
  0
LINE
  5
117
330
1F
100
AcDbEntity
  8
0
  6
Continuous
 62
     7
100
AcDbLine
 10
3.756924658158721
 20
4.263949914378015
 30
0.0
 11
3.768922156518084
 21
4.203962422581161
 31
0.0
  0
LINE
  5
118
330
1F
100
AcDbEntity
  8
0
  6
Continuous
 62
     7
100
AcDbLine
 10
3.768922156518084
 20
4.203962422581161
 30
0.0
 11
3.768922156518084
 21
4.143974930784294
 31
0.0
  0
LINE
  5
119
330
1F
100
AcDbEntity
  8
0
  6
Continuous
 62
     7
100
AcDbLine
 10
3.724757422546387
 20
4.143099045505634
 30
0.0
 11
3.709599788806255
 21
4.155972429143672
 31
0.0
  0
LINE
  5
11A
330
1F
100
AcDbEntity
  8
0
  6
Continuous
 62
     7
100
AcDbLine
 10
3.709599788806255
 20
4.155972429143672
 30
0.0
 11
3.697602290446878
 21
4.179967425862414
 31
0.0
  0
LINE
  5
11B
330
1F
100
AcDbEntity
  8
0
  6
Continuous
 62
     7
100
AcDbLine
 10
3.697602290446878
 20
4.179967425862414
 30
0.0
 11
3.697602290446878
 21
4.155972429143672
 31
0.0
  0
LINE
  5
11C
330
1F
100
AcDbEntity
  8
0
  6
Continuous
 62
     7
100
AcDbLine
 10
3.697602290446878
 20
4.155972429143672
 30
0.0
 11
3.710475674084901
 21
4.143099045505634
 31
0.0
  0
LINE
  5
11D
330
1F
100
AcDbEntity
  8
0
  6
Continuous
 62
     7
100
AcDbLine
 10
3.727587826219289
 20
4.143099045505634
 30
0.0
 11
3.708934664721239
 21
4.167969927503035
 31
0.0
  0
LINE
  5
11E
330
1F
100
AcDbEntity
  8
0
  6
Continuous
 62
     7
100
AcDbLine
 10
3.708934664721239
 20
4.167969927503035
 30
0.0
 11
3.696937166361861
 21
4.215959920940532
 31
0.0
  0
LINE
  5
11F
330
1F
100
AcDbEntity
  8
0
  6
Continuous
 62
     7
100
AcDbLine
 10
3.696937166361861
 20
4.215959920940532
 30
0.0
 11
3.684939668002482
 21
4.275947412737393
 31
0.0
  0
LINE
  5
120
330
1F
100
AcDbEntity
  8
0
  6
Continuous
 62
     7
100
AcDbLine
 10
3.684939668002482
 20
4.275947412737393
 30
0.0
 11
3.708934664721239
 21
4.215959920940532
 31
0.0
  0
LINE
  5
121
330
1F
100
AcDbEntity
  8
0
  6
Continuous
 62
     7
100
AcDbLine
 10
3.708934664721239
 20
4.215959920940532
 30
0.0
 11
3.720932163080601
 21
4.167969927503035
 31
0.0
  0
LINE
  5
122
330
1F
100
AcDbEntity
  8
0
  6
Continuous
 62
     7
100
AcDbLine
 10
3.720932163080601
 20
4.167969927503035
 30
0.0
 11
3.745803045078003
 21
4.143099045505634
 31
0.0
  0
LINE
  5
123
330
1F
100
AcDbEntity
  8
0
  6
Continuous
 62
     7
100
AcDbLine
 10
3.79291715323684
 20
4.143974930784294
 30
0.0
 11
3.840907146674322
 21
4.167969927503035
 31
0.0
  0
LINE
  5
124
330
1F
100
AcDbEntity
  8
0
  6
Continuous
 62
     7
100
AcDbLine
 10
3.840907146674322
 20
4.167969927503035
 30
0.0
 11
3.8529046450337
 21
4.179967425862414
 31
0.0
  0
LINE
  5
125
330
1F
100
AcDbEntity
  8
0
  6
Continuous
 62
     7
100
AcDbLine
 10
3.8529046450337
 20
4.179967425862414
 30
0.0
 11
3.840907146674322
 21
4.155972429143672
 31
0.0
  0
LINE
  5
126
330
1F
100
AcDbEntity
  8
0
  6
Continuous
 62
     7
100
AcDbLine
 10
3.840907146674322
 20
4.155972429143672
 30
0.0
 11
3.815160379398261
 21
4.143099045505634
 31
0.0
  0
LINE
  5
127
330
1F
100
AcDbEntity
  8
0
  6
Continuous
 62
     7
100
AcDbLine
 10
3.941869351284521
 20
4.148361156886251
 30
0.0
 11
3.930842480559971
 21
4.214330254793727
 31
0.0
  0
LINE
  5
128
330
1F
100
AcDbEntity
  8
0
  6
Continuous
 62
     7
100
AcDbLine
 10
3.930842480559971
 20
4.214330254793727
 30
0.0
 11
3.919489784575344
 21
4.269129947708625
 31
0.0
  0
LINE
  5
129
330
1F
100
AcDbEntity
  8
0
  6
Continuous
 62
     7
100
AcDbLine
 10
3.919489784575344
 20
4.269129947708625
 30
0.0
 11
3.887178265234493
 21
4.322401362335062
 31
0.0
  0
LINE
  5
12A
330
1F
100
AcDbEntity
  8
0
  6
Continuous
 62
     7
100
AcDbLine
 10
3.887178265234493
 20
4.322401362335062
 30
0.0
 11
3.874733963866714
 21
4.365848130821382
 31
0.0
  0
LINE
  5
12B
330
1F
100
AcDbEntity
  8
0
  6
Continuous
 62
     7
100
AcDbLine
 10
3.874733963866714
 20
4.365848130821382
 30
0.0
 11
3.881720238318803
 21
4.319563131227923
 31
0.0
  0
LINE
  5
12C
330
1F
100
AcDbEntity
  8
0
  6
Continuous
 62
     7
100
AcDbLine
 10
3.881720238318803
 20
4.319563131227923
 30
0.0
 11
3.906827162130963
 21
4.264763438313018
 31
0.0
  0
LINE
  5
12D
330
1F
100
AcDbEntity
  8
0
  6
Continuous
 62
     7
100
AcDbLine
 10
3.906827162130963
 20
4.264763438313018
 30
0.0
 11
3.919489784575344
 21
4.20581556147229
 31
0.0
  0
LINE
  5
12E
330
1F
100
AcDbEntity
  8
0
  6
Continuous
 62
     7
100
AcDbLine
 10
3.919489784575344
 20
4.20581556147229
 30
0.0
 11
3.928796852865983
 21
4.148361156886251
 31
0.0
  0
LINE
  5
12F
330
1F
100
AcDbEntity
  8
0
  6
Continuous
 62
     7
100
AcDbLine
 10
3.923241140928949
 20
4.148361156886251
 30
0.0
 11
3.881720238318803
 21
4.194680962513493
 31
0.0
  0
LINE
  5
130
330
1F
100
AcDbEntity
  8
0
  6
Continuous
 62
     7
100
AcDbLine
 10
3.881720238318803
 20
4.194680962513493
 30
0.0
 11
3.874733963866714
 21
4.24948065542839
 31
0.0
  0
LINE
  5
131
330
1F
100
AcDbEntity
  8
0
  6
Continuous
 62
     7
100
AcDbLine
 10
3.874733963866714
 20
4.24948065542839
 30
0.0
 11
3.881720238318803
 21
4.273278131634461
 31
0.0
  0
LINE
  5
132
330
1F
100
AcDbEntity
  8
0
  6
Continuous
 62
     7
100
AcDbLine
 10
3.881720238318803
 20
4.273278131634461
 30
0.0
 11
3.869057615874408
 21
4.253628839354213
 31
0.0
  0
LINE
  5
133
330
1F
100
AcDbEntity
  8
0
  6
Continuous
 62
     7
100
AcDbLine
 10
3.869057615874408
 20
4.253628839354213
 30
0.0
 11
3.869057615874408
 21
4.198829146439321
 31
0.0
  0
LINE
  5
134
330
1F
100
AcDbEntity
  8
0
  6
Continuous
 62
     7
100
AcDbLine
 10
3.869057615874408
 20
4.198829146439321
 30
0.0
 11
3.909396269860335
 21
4.148361156886251
 31
0.0
  0
LINE
  5
135
330
1F
100
AcDbEntity
  8
0
  6
Continuous
 62
     7
100
AcDbLine
 10
3.943103066711356
 20
4.148361156886251
 30
0.0
 11
3.974501486207512
 21
4.255375443112462
 31
0.0
  0
LINE
  5
136
330
1F
100
AcDbEntity
  8
0
  6
Continuous
 62
     7
100
AcDbLine
 10
3.974501486207512
 20
4.255375443112462
 30
0.0
 11
3.974501486207512
 21
4.321091409516382
 31
0.0
  0
LINE
  5
137
330
1F
100
AcDbEntity
  8
0
  6
Continuous
 62
     7
100
AcDbLine
 10
3.974501486207512
 20
4.321091409516382
 30
0.0
 11
3.983234329272602
 21
4.23114131596683
 31
0.0
  0
LINE
  5
138
330
1F
100
AcDbEntity
  8
0
  6
Continuous
 62
     7
100
AcDbLine
 10
3.983234329272602
 20
4.23114131596683
 30
0.0
 11
3.956668890795808
 21
4.148361156886251
 31
0.0
  0
LINE
  5
139
330
1F
100
AcDbEntity
  8
0
  6
Continuous
 62
     7
100
AcDbLine
 10
4.409644061397498
 20
4.143974930784294
 30
0.0
 11
4.421641559756875
 21
4.203962422581161
 31
0.0
  0
LINE
  5
13A
330
1F
100
AcDbEntity
  8
0
  6
Continuous
 62
     7
100
AcDbLine
 10
4.421641559756875
 20
4.203962422581161
 30
0.0
 11
4.409644061397498
 21
4.263949914378015
 31
0.0
  0
LINE
  5
13B
330
1F
100
AcDbEntity
  8
0
  6
Continuous
 62
     7
100
AcDbLine
 10
4.409644061397498
 20
4.263949914378015
 30
0.0
 11
4.409644061397498
 21
4.311939907815514
 31
0.0
  0
LINE
  5
13C
330
1F
100
AcDbEntity
  8
0
  6
Continuous
 62
     7
100
AcDbLine
 10
4.409644061397498
 20
4.311939907815514
 30
0.0
 11
4.421641559756875
 21
4.263949914378015
 31
0.0
  0
LINE
  5
13D
330
1F
100
AcDbEntity
  8
0
  6
Continuous
 62
     7
100
AcDbLine
 10
4.421641559756875
 20
4.263949914378015
 30
0.0
 11
4.433639058116239
 21
4.203962422581161
 31
0.0
  0
LINE
  5
13E
330
1F
100
AcDbEntity
  8
0
  6
Continuous
 62
     7
100
AcDbLine
 10
4.433639058116239
 20
4.203962422581161
 30
0.0
 11
4.433639058116239
 21
4.143974930784294
 31
0.0
  0
LINE
  5
141
330
1F
100
AcDbEntity
  8
0
  6
Continuous
 62
     7
100
AcDbLine
 10
2.817539274545073
 20
3.378888721228344
 30
0.0
 11
2.525228757234771
 21
3.378888721228344
 31
0.0
  0
LINE
  5
142
330
1F
100
AcDbEntity
  8
0
  6
Continuous
 62
     7
100
AcDbLine
 10
4.392304727817443
 20
4.143099045505634
 30
0.0
 11
4.373651566319392
 21
4.167969927503035
 31
0.0
  0
LINE
  5
143
330
1F
100
AcDbEntity
  8
0
  6
Continuous
 62
     7
100
AcDbLine
 10
4.373651566319392
 20
4.167969927503035
 30
0.0
 11
4.361654067960015
 21
4.215959920940532
 31
0.0
  0
LINE
  5
144
330
1F
100
AcDbEntity
  8
0
  6
Continuous
 62
     7
100
AcDbLine
 10
4.361654067960015
 20
4.215959920940532
 30
0.0
 11
4.349656569600637
 21
4.275947412737393
 31
0.0
  0
LINE
  5
145
330
1F
100
AcDbEntity
  8
0
  6
Continuous
 62
     7
100
AcDbLine
 10
4.349656569600637
 20
4.275947412737393
 30
0.0
 11
4.373651566319392
 21
4.215959920940532
 31
0.0
  0
LINE
  5
146
330
1F
100
AcDbEntity
  8
0
  6
Continuous
 62
     7
100
AcDbLine
 10
4.373651566319392
 20
4.215959920940532
 30
0.0
 11
4.385649064678757
 21
4.167969927503035
 31
0.0
  0
LINE
  5
147
330
1F
100
AcDbEntity
  8
0
  6
Continuous
 62
     7
100
AcDbLine
 10
4.385649064678757
 20
4.167969927503035
 30
0.0
 11
4.410519946676157
 21
4.143099045505634
 31
0.0
  0
LINE
  5
148
330
1F
100
AcDbEntity
  8
0
  6
Continuous
 62
     7
100
AcDbLine
 10
4.389474324144541
 20
4.143099045505634
 30
0.0
 11
4.374316690404411
 21
4.155972429143672
 31
0.0
  0
LINE
  5
149
330
1F
100
AcDbEntity
  8
0
  6
Continuous
 62
     7
100
AcDbLine
 10
4.374316690404411
 20
4.155972429143672
 30
0.0
 11
4.362319192045032
 21
4.179967425862414
 31
0.0
  0
LINE
  5
14A
330
1F
100
AcDbEntity
  8
0
  6
Continuous
 62
     7
100
AcDbLine
 10
4.362319192045032
 20
4.179967425862414
 30
0.0
 11
4.362319192045032
 21
4.155972429143672
 31
0.0
  0
LINE
  5
14B
330
1F
100
AcDbEntity
  8
0
  6
Continuous
 62
     7
100
AcDbLine
 10
4.362319192045032
 20
4.155972429143672
 30
0.0
 11
4.375192575683056
 21
4.143099045505634
 31
0.0
  0
LINE
  5
14C
330
1F
100
AcDbEntity
  8
0
  6
Continuous
 62
     7
100
AcDbLine
 10
4.433639058116239
 20
4.143974930784294
 30
0.0
 11
4.469631553194372
 21
4.179967425862414
 31
0.0
  0
LINE
  5
14D
330
1F
100
AcDbEntity
  8
0
  6
Continuous
 62
     7
100
AcDbLine
 10
4.469631553194372
 20
4.179967425862414
 30
0.0
 11
4.493626549913114
 21
4.227957419299897
 31
0.0
  0
LINE
  5
14E
330
1F
100
AcDbEntity
  8
0
  6
Continuous
 62
     7
100
AcDbLine
 10
4.493626549913114
 20
4.227957419299897
 30
0.0
 11
4.493626549913114
 21
4.287944911096763
 31
0.0
  0
LINE
  5
14F
330
1F
100
AcDbEntity
  8
0
  6
Continuous
 62
     7
100
AcDbLine
 10
4.493626549913114
 20
4.287944911096763
 30
0.0
 11
4.505624048272477
 21
4.227957419299897
 31
0.0
  0
LINE
  5
150
330
1F
100
AcDbEntity
  8
0
  6
Continuous
 62
     7
100
AcDbLine
 10
4.505624048272477
 20
4.227957419299897
 30
0.0
 11
4.481629051553736
 21
4.179967425862414
 31
0.0
  0
LINE
  5
151
330
1F
100
AcDbEntity
  8
0
  6
Continuous
 62
     7
100
AcDbLine
 10
4.481629051553736
 20
4.179967425862414
 30
0.0
 11
4.453977766286155
 21
4.143099045505634
 31
0.0
  0
LINE
  5
152
330
1F
100
AcDbEntity
  8
0
  6
Continuous
 62
     7
100
AcDbLine
 10
4.457634054834994
 20
4.143974930784294
 30
0.0
 11
4.505624048272477
 21
4.167969927503035
 31
0.0
  0
LINE
  5
153
330
1F
100
AcDbEntity
  8
0
  6
Continuous
 62
     7
100
AcDbLine
 10
4.505624048272477
 20
4.167969927503035
 30
0.0
 11
4.517621546631856
 21
4.179967425862414
 31
0.0
  0
LINE
  5
154
330
1F
100
AcDbEntity
  8
0
  6
Continuous
 62
     7
100
AcDbLine
 10
4.517621546631856
 20
4.179967425862414
 30
0.0
 11
4.505624048272477
 21
4.155972429143672
 31
0.0
  0
LINE
  5
155
330
1F
100
AcDbEntity
  8
0
  6
Continuous
 62
     7
100
AcDbLine
 10
4.505624048272477
 20
4.155972429143672
 30
0.0
 11
4.479877280996416
 21
4.143099045505634
 31
0.0
  0
LINE
  5
156
330
1F
100
AcDbEntity
  8
0
  6
Continuous
 62
     7
100
AcDbLine
 10
4.791451605357208
 20
4.143099045505634
 30
0.0
 11
4.744438383451435
 21
4.159148802340366
 31
0.0
  0
LINE
  5
157
330
1F
100
AcDbEntity
  8
0
  6
Continuous
 62
     7
100
AcDbLine
 10
4.744438383451435
 20
4.159148802340366
 30
0.0
 11
4.719129087302403
 21
4.177885613527229
 31
0.0
  0
LINE
  5
158
330
1F
100
AcDbEntity
  8
0
  6
Continuous
 62
     7
100
AcDbLine
 10
4.719129087302403
 20
4.177885613527229
 30
0.0
 11
4.700468203276099
 21
4.196546873056083
 31
0.0
  0
LINE
  5
159
330
1F
100
AcDbEntity
  8
0
  6
Continuous
 62
     7
100
AcDbLine
 10
4.700468203276099
 20
4.196546873056083
 30
0.0
 11
4.719129087302403
 21
4.167988346327716
 31
0.0
  0
LINE
  5
15A
330
1F
100
AcDbEntity
  8
0
  6
Continuous
 62
     7
100
AcDbLine
 10
4.719129087302403
 20
4.167988346327716
 30
0.0
 11
4.744438383451435
 21
4.147136088716541
 31
0.0
  0
LINE
  5
15B
330
1F
100
AcDbEntity
  8
0
  6
Continuous
 62
     7
100
AcDbLine
 10
4.744438383451435
 20
4.147136088716541
 30
0.0
 11
4.762402864250756
 21
4.143099045505634
 31
0.0
  0
LINE
  5
15C
330
1F
100
AcDbEntity
  8
0
  6
Continuous
 62
     7
100
AcDbLine
 10
4.791451605357208
 20
4.143099045505634
 30
0.0
 11
4.714747179312408
 21
4.214074857714755
 31
0.0
  0
LINE
  5
15D
330
1F
100
AcDbEntity
  8
0
  6
Continuous
 62
     7
100
AcDbLine
 10
4.714747179312408
 20
4.214074857714755
 30
0.0
 11
4.670852549274823
 21
4.303074710852333
 31
0.0
  0
LINE
  5
15E
330
1F
100
AcDbEntity
  8
0
  6
Continuous
 62
     7
100
AcDbLine
 10
4.670852549274823
 20
4.303074710852333
 30
0.0
 11
4.660955481228482
 21
4.357925214568709
 31
0.0
  0
LINE
  5
15F
330
1F
100
AcDbEntity
  8
0
  6
Continuous
 62
     7
100
AcDbLine
 10
4.660955481228482
 20
4.357925214568709
 30
0.0
 11
4.680749617321166
 21
4.303074710852333
 31
0.0
  0
LINE
  5
160
330
1F
100
AcDbEntity
  8
0
  6
Continuous
 62
     7
100
AcDbLine
 10
4.680749617321166
 20
4.303074710852333
 30
0.0
 11
4.719129087302403
 21
4.222838850044091
 31
0.0
  0
LINE
  5
161
330
1F
100
AcDbEntity
  8
0
  6
Continuous
 62
     7
100
AcDbLine
 10
4.719129087302403
 20
4.222838850044091
 30
0.0
 11
4.804974602116542
 21
4.143099045505634
 31
0.0
  0
LINE
  5
162
330
1F
100
AcDbEntity
  8
0
  6
Continuous
 62
     7
100
AcDbLine
 10
4.590568905135212
 20
4.148361156886251
 30
0.0
 11
4.579542034410661
 21
4.214330254793727
 31
0.0
  0
LINE
  5
163
330
1F
100
AcDbEntity
  8
0
  6
Continuous
 62
     7
100
AcDbLine
 10
4.579542034410661
 20
4.214330254793727
 30
0.0
 11
4.568189338426035
 21
4.269129947708625
 31
0.0
  0
LINE
  5
164
330
1F
100
AcDbEntity
  8
0
  6
Continuous
 62
     7
100
AcDbLine
 10
4.568189338426035
 20
4.269129947708625
 30
0.0
 11
4.535877819085183
 21
4.322401362335062
 31
0.0
  0
LINE
  5
165
330
1F
100
AcDbEntity
  8
0
  6
Continuous
 62
     7
100
AcDbLine
 10
4.535877819085183
 20
4.322401362335062
 30
0.0
 11
4.523433517717404
 21
4.365848130821382
 31
0.0
  0
LINE
  5
166
330
1F
100
AcDbEntity
  8
0
  6
Continuous
 62
     7
100
AcDbLine
 10
4.523433517717404
 20
4.365848130821382
 30
0.0
 11
4.530419792169493
 21
4.319563131227923
 31
0.0
  0
LINE
  5
167
330
1F
100
AcDbEntity
  8
0
  6
Continuous
 62
     7
100
AcDbLine
 10
4.530419792169493
 20
4.319563131227923
 30
0.0
 11
4.555526715981654
 21
4.264763438313018
 31
0.0
  0
LINE
  5
168
330
1F
100
AcDbEntity
  8
0
  6
Continuous
 62
     7
100
AcDbLine
 10
4.555526715981654
 20
4.264763438313018
 30
0.0
 11
4.568189338426035
 21
4.20581556147229
 31
0.0
  0
LINE
  5
169
330
1F
100
AcDbEntity
  8
0
  6
Continuous
 62
     7
100
AcDbLine
 10
4.568189338426035
 20
4.20581556147229
 30
0.0
 11
4.577496406716673
 21
4.148361156886251
 31
0.0
  0
LINE
  5
16A
330
1F
100
AcDbEntity
  8
0
  6
Continuous
 62
     7
100
AcDbLine
 10
4.571940694779638
 20
4.148361156886251
 30
0.0
 11
4.530419792169493
 21
4.194680962513493
 31
0.0
  0
LINE
  5
16B
330
1F
100
AcDbEntity
  8
0
  6
Continuous
 62
     7
100
AcDbLine
 10
4.530419792169493
 20
4.194680962513493
 30
0.0
 11
4.523433517717404
 21
4.24948065542839
 31
0.0
  0
LINE
  5
16C
330
1F
100
AcDbEntity
  8
0
  6
Continuous
 62
     7
100
AcDbLine
 10
4.523433517717404
 20
4.24948065542839
 30
0.0
 11
4.530419792169493
 21
4.273278131634461
 31
0.0
  0
LINE
  5
16D
330
1F
100
AcDbEntity
  8
0
  6
Continuous
 62
     7
100
AcDbLine
 10
4.530419792169493
 20
4.273278131634461
 30
0.0
 11
4.517757169725098
 21
4.253628839354213
 31
0.0
  0
LINE
  5
16E
330
1F
100
AcDbEntity
  8
0
  6
Continuous
 62
     7
100
AcDbLine
 10
4.517757169725098
 20
4.253628839354213
 30
0.0
 11
4.517757169725098
 21
4.198829146439321
 31
0.0
  0
LINE
  5
16F
330
1F
100
AcDbEntity
  8
0
  6
Continuous
 62
     7
100
AcDbLine
 10
4.517757169725098
 20
4.198829146439321
 30
0.0
 11
4.558095823711026
 21
4.148361156886251
 31
0.0
  0
LINE
  5
170
330
1F
100
AcDbEntity
  8
0
  6
Continuous
 62
     7
100
AcDbLine
 10
4.591802620562046
 20
4.148361156886251
 30
0.0
 11
4.623201040058203
 21
4.255375443112462
 31
0.0
  0
LINE
  5
171
330
1F
100
AcDbEntity
  8
0
  6
Continuous
 62
     7
100
AcDbLine
 10
4.623201040058203
 20
4.255375443112462
 30
0.0
 11
4.623201040058203
 21
4.321091409516382
 31
0.0
  0
LINE
  5
172
330
1F
100
AcDbEntity
  8
0
  6
Continuous
 62
     7
100
AcDbLine
 10
4.623201040058203
 20
4.321091409516382
 30
0.0
 11
4.631933883123293
 21
4.23114131596683
 31
0.0
  0
LINE
  5
173
330
1F
100
AcDbEntity
  8
0
  6
Continuous
 62
     7
100
AcDbLine
 10
4.631933883123293
 20
4.23114131596683
 30
0.0
 11
4.605368444646498
 21
4.148361156886251
 31
0.0
  0
LINE
  5
174
330
1F
100
AcDbEntity
  8
0
  6
Continuous
 62
     7
100
AcDbLine
 10
4.605368444646498
 20
4.148361156886251
 30
0.0
 11
4.662717154927759
 21
4.213456952914603
 31
0.0
  0
LINE
  5
175
330
1F
100
AcDbEntity
  8
0
  6
Continuous
 62
     7
100
AcDbLine
 10
4.662717154927759
 20
4.213456952914603
 30
0.0
 11
4.662717154927759
 21
4.272841480694899
 31
0.0
  0
LINE
  5
176
330
1F
100
AcDbEntity
  8
0
  6
Continuous
 62
     7
100
AcDbLine
 10
4.662717154927759
 20
4.272841480694899
 30
0.0
 11
4.671449997992863
 21
4.195990915332166
 31
0.0
  0
LINE
  5
177
330
1F
100
AcDbEntity
  8
0
  6
Continuous
 62
     7
100
AcDbLine
 10
4.671449997992863
 20
4.195990915332166
 30
0.0
 11
4.61998016569353
 21
4.148361156886251
 31
0.0
  0
LINE
  5
17F
330
1F
100
AcDbEntity
  8
0
  6
Continuous
 62
     7
100
AcDbLine
 10
1.643581779816596
 20
7.959234963416342
 30
0.0
 11
1.614718624566035
 21
7.959234963416342
 31
0.0
  0
LINE
  5
180
330
1F
100
AcDbEntity
  8
0
  6
Continuous
 62
     7
100
AcDbLine
 10
1.614718624566035
 20
7.959234963416342
 30
0.0
 11
1.614718624566035
 21
7.943954469460162
 31
0.0
  0
LINE
  5
181
330
1F
100
AcDbEntity
  8
0
  6
Continuous
 62
     7
100
AcDbLine
 10
1.614718624566035
 20
7.943954469460162
 30
0.0
 11
1.643581779816595
 21
7.943954469460162
 31
0.0
  0
LINE
  5
182
330
1F
100
AcDbEntity
  8
0
  6
Continuous
 62
     7
100
AcDbLine
 10
1.643581779816595
 20
7.943954469460162
 30
0.0
 11
1.643581779816595
 21
7.93173007429522
 31
0.0
  0
LINE
  5
187
330
1F
100
AcDbEntity
  8
0
  6
Continuous
 62
     7
100
AcDbLine
 10
4.829211431179513
 20
4.143099045505634
 30
0.0
 11
4.87733107576835
 21
4.183325332904059
 31
0.0
  0
LINE
  5
188
330
1F
100
AcDbEntity
  8
0
  6
Continuous
 62
     7
100
AcDbLine
 10
4.87733107576835
 20
4.183325332904059
 30
0.0
 11
4.90143156971325
 21
4.226163122996601
 31
0.0
  0
LINE
  5
189
330
1F
100
AcDbEntity
  8
0
  6
Continuous
 62
     7
100
AcDbLine
 10
4.90143156971325
 20
4.226163122996601
 30
0.0
 11
4.906946729769613
 21
4.259103645889622
 31
0.0
  0
LINE
  5
18A
330
1F
100
AcDbEntity
  8
0
  6
Continuous
 62
     7
100
AcDbLine
 10
4.906946729769613
 20
4.259103645889622
 30
0.0
 11
4.906946729769613
 21
4.216265855797088
 31
0.0
  0
LINE
  5
18B
330
1F
100
AcDbEntity
  8
0
  6
Continuous
 62
     7
100
AcDbLine
 10
4.906946729769613
 20
4.216265855797088
 30
0.0
 11
4.887152593676928
 21
4.177885613527229
 31
0.0
  0
LINE
  5
18C
330
1F
100
AcDbEntity
  8
0
  6
Continuous
 62
     7
100
AcDbLine
 10
4.887152593676928
 20
4.177885613527229
 30
0.0
 11
4.851869180001271
 21
4.148444720533637
 31
0.0
  0
LINE
  5
18D
330
1F
100
AcDbEntity
  8
0
  6
Continuous
 62
     7
100
AcDbLine
 10
4.829211431179513
 20
4.143099045505634
 30
0.0
 11
4.871815915711988
 21
4.226163122996601
 31
0.0
  0
LINE
  5
18E
330
1F
100
AcDbEntity
  8
0
  6
Continuous
 62
     7
100
AcDbLine
 10
4.871815915711988
 20
4.226163122996601
 30
0.0
 11
4.87733107576835
 21
4.277764905418477
 31
0.0
  0
LINE
  5
18F
330
1F
100
AcDbEntity
  8
0
  6
Continuous
 62
     7
100
AcDbLine
 10
4.87733107576835
 20
4.277764905418477
 30
0.0
 11
4.87733107576835
 21
4.34583694928686
 31
0.0
  0
LINE
  5
190
330
1F
100
AcDbEntity
  8
0
  6
Continuous
 62
     7
100
AcDbLine
 10
4.87733107576835
 20
4.34583694928686
 30
0.0
 11
4.887152593676928
 21
4.269000913089135
 31
0.0
  0
LINE
  5
191
330
1F
100
AcDbEntity
  8
0
  6
Continuous
 62
     7
100
AcDbLine
 10
4.887152593676928
 20
4.269000913089135
 30
0.0
 11
4.881712983758331
 21
4.216265855797088
 31
0.0
  0
LINE
  5
192
330
1F
100
AcDbEntity
  8
0
  6
Continuous
 62
     7
100
AcDbLine
 10
4.881712983758331
 20
4.216265855797088
 30
0.0
 11
4.844895548870678
 21
4.156210402233773
 31
0.0
  0
LINE
  5
193
330
1F
100
AcDbEntity
  8
0
  6
Continuous
 62
     7
100
AcDbLine
 10
4.8454626602184
 20
4.143099045505634
 30
0.0
 11
4.916843797815954
 21
4.152575808093372
 31
0.0
  0
LINE
  5
194
330
1F
100
AcDbEntity
  8
0
  6
Continuous
 62
     7
100
AcDbLine
 10
4.916843797815954
 20
4.152575808093372
 30
0.0
 11
4.9454017498886
 21
4.189898327151062
 31
0.0
  0
LINE
  5
195
330
1F
100
AcDbEntity
  8
0
  6
Continuous
 62
     7
100
AcDbLine
 10
4.9454017498886
 20
4.189898327151062
 30
0.0
 11
4.959680725924937
 21
4.241575661230952
 31
0.0
  0
LINE
  5
196
330
1F
100
AcDbEntity
  8
0
  6
Continuous
 62
     7
100
AcDbLine
 10
4.959680725924937
 20
4.241575661230952
 30
0.0
 11
4.935504681842258
 21
4.189898327151062
 31
0.0
  0
LINE
  5
197
330
1F
100
AcDbEntity
  8
0
  6
Continuous
 62
     7
100
AcDbLine
 10
4.935504681842258
 20
4.189898327151062
 30
0.0
 11
4.911328637759592
 21
4.162473075292878
 31
0.0
  0
LINE
  5
198
330
1F
100
AcDbEntity
  8
0
  6
Continuous
 62
     7
100
AcDbLine
 10
4.911328637759592
 20
4.162473075292878
 30
0.0
 11
4.829211431179513
 21
4.143099045505634
 31
0.0
  0
LINE
  5
199
330
1F
100
AcDbEntity
  8
0
  6
Continuous
 62
     7
100
AcDbLine
 10
4.818302218351061
 20
4.143099045505634
 30
0.0
 11
4.827845735536638
 21
4.234927115325937
 31
0.0
  0
LINE
  5
19A
330
1F
100
AcDbEntity
  8
0
  6
Continuous
 62
     7
100
AcDbLine
 10
4.827845735536638
 20
4.234927115325937
 30
0.0
 11
4.823463827546658
 21
4.339263955039852
 31
0.0
  0
LINE
  5
19B
330
1F
100
AcDbEntity
  8
0
  6
Continuous
 62
     7
100
AcDbLine
 10
4.823463827546658
 20
4.339263955039852
 30
0.0
 11
4.818024217628062
 21
4.385426018084899
 31
0.0
  0
LINE
  5
19C
330
1F
100
AcDbEntity
  8
0
  6
Continuous
 62
     7
100
AcDbLine
 10
4.818024217628062
 20
4.385426018084899
 30
0.0
 11
4.833360895593
 21
4.336015233745355
 31
0.0
  0
LINE
  5
19D
330
1F
100
AcDbEntity
  8
0
  6
Continuous
 62
     7
100
AcDbLine
 10
4.833360895593
 20
4.336015233745355
 30
0.0
 11
4.837742803582981
 21
4.234927115325937
 31
0.0
  0
LINE
  5
19E
330
1F
100
AcDbEntity
  8
0
  6
Continuous
 62
     7
100
AcDbLine
 10
4.837742803582981
 20
4.234927115325937
 30
0.0
 11
4.829211431179513
 21
4.143099045505634
 31
0.0
  0
LINE
  5
200
330
1F
100
AcDbEntity
  8
0
  6
Continuous
 62
     7
100
AcDbLine
 10
2.776668956818231
 20
7.634746911608893
 30
0.0
 11
2.785066361438214
 21
7.634746911608893
 31
0.0
  0
LINE
  5
201
330
1F
100
AcDbEntity
  8
0
  6
Continuous
 62
     7
100
AcDbLine
 10
2.785066361438214
 20
7.634746911608893
 30
0.0
 11
2.785066361438214
 21
7.558211796406061
 31
0.0
  0
LINE
  5
202
330
1F
100
AcDbEntity
  8
0
  6
Continuous
 62
     7
100
AcDbLine
 10
1.643581779816595
 20
7.93173007429522
 30
0.0
 11
1.614718624566034
 21
7.93173007429522
 31
0.0
  0
LINE
  5
203
330
1F
100
AcDbEntity
  8
0
  6
Continuous
 62
     7
100
AcDbLine
 10
1.614718624566034
 20
7.93173007429522
 30
0.0
 11
1.614718624566034
 21
7.916449580339042
 31
0.0
  0
LINE
  5
204
330
1F
100
AcDbEntity
  8
0
  6
Continuous
 62
     7
100
AcDbLine
 10
1.614718624566034
 20
7.916449580339042
 30
0.0
 11
1.643581779816595
 21
7.916449580339042
 31
0.0
  0
LINE
  5
205
330
1F
100
AcDbEntity
  8
0
  6
Continuous
 62
     7
100
AcDbLine
 10
1.643581779816595
 20
7.916449580339042
 30
0.0
 11
1.643581779816594
 21
7.887490503498568
 31
0.0
  0
LINE
  5
206
330
1F
100
AcDbEntity
  8
0
  6
Continuous
 62
     7
100
AcDbLine
 10
1.661440119485252
 20
7.887490503498568
 30
0.0
 11
1.745563677751813
 21
7.887490503498568
 31
0.0
  0
LINE
  5
207
330
1F
100
AcDbEntity
  8
0
  6
Continuous
 62
     7
100
AcDbLine
 10
1.648382623432722
 20
7.874042881965707
 30
0.0
 11
1.648382623432723
 21
7.83936543731335
 31
0.0
  0
LINE
  5
208
330
1F
100
AcDbEntity
  8
0
  6
Continuous
 62
     7
100
AcDbLine
 10
1.660680124601126
 20
7.874042881965707
 30
0.0
 11
1.660680124601127
 21
7.83936543731335
 31
0.0
  0
LINE
  5
209
330
1F
100
AcDbEntity
  8
0
  6
Continuous
 62
     7
100
AcDbLine
 10
1.673660820278885
 20
7.874042881965707
 30
0.0
 11
1.673660820278885
 21
7.83936543731335
 31
0.0
  0
LINE
  5
20A
330
1F
100
AcDbEntity
  8
0
  6
Continuous
 62
     7
100
AcDbLine
 10
1.702696586926505
 20
7.874042881965707
 30
0.0
 11
1.702696586926505
 21
7.83936543731335
 31
0.0
  0
LINE
  5
20B
330
1F
100
AcDbEntity
  8
0
  6
Continuous
 62
     7
100
AcDbLine
 10
1.673660820278885
 20
7.874042881965707
 30
0.0
 11
1.702696586926505
 21
7.874042881965707
 31
0.0
  0
LINE
  5
20C
330
1F
100
AcDbEntity
  8
0
  6
Continuous
 62
     7
100
AcDbLine
 10
1.723192422207178
 20
7.874042881965707
 30
0.0
 11
1.723192422207178
 21
7.83936543731335
 31
0.0
  0
LINE
  5
20D
330
1F
100
AcDbEntity
  8
0
  6
Continuous
 62
     7
100
AcDbLine
 10
1.723192422207178
 20
7.874042881965707
 30
0.0
 11
1.745563677751813
 21
7.874042881965707
 31
0.0
  0
LINE
  5
20E
330
1F
100
AcDbEntity
  8
0
  6
Continuous
 62
     7
100
AcDbLine
 10
2.793808525784126
 20
7.609068735431802
 30
0.0
 11
2.821083857152692
 21
7.609068735431802
 31
0.0
  0
LINE
  5
20F
330
1F
100
AcDbEntity
  8
0
  6
Continuous
 62
     7
100
AcDbLine
 10
2.793808525784126
 20
7.583889972583155
 30
0.0
 11
2.821083857152692
 21
7.583889972583155
 31
0.0
  0
LINE
  5
210
330
1F
100
AcDbEntity
  8
0
  6
Continuous
 62
     7
100
AcDbLine
 10
2.82272757233815
 20
7.3858867961131
 30
0.0
 11
2.82272757233815
 21
7.403230396160266
 31
0.0
  0
LINE
  5
211
330
1F
100
AcDbEntity
  8
0
  6
Continuous
 62
     7
100
AcDbLine
 10
2.82572757233815
 20
7.3858867961131
 30
0.0
 11
2.82572757233815
 21
7.403230396160266
 31
0.0
  0
LINE
  5
212
330
1F
100
AcDbEntity
  8
0
  6
Continuous
 62
     7
100
AcDbLine
 10
2.785066361438214
 20
7.625524606232906
 30
0.0
 11
2.793808525784126
 21
7.625524606232906
 31
0.0
  0
LINE
  5
213
330
1F
100
AcDbEntity
  8
0
  6
Continuous
 62
     7
100
AcDbLine
 10
2.785066361438214
 20
7.558211796406061
 30
0.0
 11
2.776668956818231
 21
7.558211796406061
 31
0.0
  0
LINE
  5
214
330
1F
100
AcDbEntity
  8
0
  6
Continuous
 62
     7
100
AcDbLine
 10
2.793808525784126
 20
7.625524606232906
 30
0.0
 11
2.793808525784126
 21
7.567434101782048
 31
0.0
  0
LINE
  5
215
330
1F
100
AcDbEntity
  8
0
  6
Continuous
 62
     7
100
AcDbLine
 10
2.793808525784126
 20
7.567434101782048
 30
0.0
 11
2.785066361438214
 21
7.567434101782048
 31
0.0
  0
LINE
  5
216
330
1F
100
AcDbEntity
  8
0
  6
Continuous
 62
     7
100
AcDbLine
 10
2.793808525784126
 20
7.620836658653934
 30
0.0
 11
2.821083857152692
 21
7.620836658653934
 31
0.0
  0
LINE
  5
217
330
1F
100
AcDbEntity
  8
0
  6
Continuous
 62
     7
100
AcDbLine
 10
2.821083857152692
 20
7.620836658653934
 30
0.0
 11
2.821083857152692
 21
7.572122049361021
 31
0.0
  0
LINE
  5
218
330
1F
100
AcDbEntity
  8
0
  6
Continuous
 62
     7
100
AcDbLine
 10
2.821083857152692
 20
7.572122049361021
 30
0.0
 11
2.793808525784126
 21
7.572122049361021
 31
0.0
  0
LINE
  5
219
330
1F
100
AcDbEntity
  8
0
  6
Continuous
 62
     7
100
AcDbLine
 10
2.821083857152692
 20
7.606670626755269
 30
0.0
 11
2.86095111080573
 21
7.606670626755269
 31
0.0
  0
LINE
  5
21A
330
1F
100
AcDbEntity
  8
0
  6
Continuous
 62
     7
100
AcDbLine
 10
2.821083857152692
 20
7.586288081259688
 30
0.0
 11
2.86095111080573
 21
7.586288081259688
 31
0.0
  0
LINE
  5
21B
330
1F
100
AcDbEntity
  8
0
  6
Continuous
 62
     7
100
AcDbLine
 10
2.86095111080573
 20
7.606670626755269
 30
0.0
 11
2.86095111080573
 21
7.586288081259688
 31
0.0
  0
LINE
  5
21C
330
1F
100
AcDbEntity
  8
0
  6
Continuous
 62
     7
100
AcDbLine
 10
2.858727572338145
 20
7.605188267776878
 30
0.0
 11
2.858727572338145
 21
7.587844667729713
 31
0.0
  0
LINE
  5
21D
330
1F
100
AcDbEntity
  8
0
  6
Continuous
 62
     7
100
AcDbLine
 10
2.85572757233815
 20
7.605188267776878
 30
0.0
 11
2.85572757233815
 21
7.587844667729713
 31
0.0
  0
LINE
  5
21E
330
1F
100
AcDbEntity
  8
0
  6
Continuous
 62
     7
100
AcDbLine
 10
2.85272757233815
 20
7.605188267776878
 30
0.0
 11
2.85272757233815
 21
7.587844667729713
 31
0.0
  0
LINE
  5
21F
330
1F
100
AcDbEntity
  8
0
  6
Continuous
 62
     7
100
AcDbLine
 10
2.84972757233815
 20
7.605188267776878
 30
0.0
 11
2.84972757233815
 21
7.587844667729713
 31
0.0
  0
LINE
  5
220
330
1F
100
AcDbEntity
  8
0
  6
Continuous
 62
     7
100
AcDbLine
 10
2.84672757233815
 20
7.605188267776878
 30
0.0
 11
2.84672757233815
 21
7.587844667729713
 31
0.0
  0
LINE
  5
221
330
1F
100
AcDbEntity
  8
0
  6
Continuous
 62
     7
100
AcDbLine
 10
2.84372757233815
 20
7.605188267776878
 30
0.0
 11
2.84372757233815
 21
7.587844667729713
 31
0.0
  0
LINE
  5
222
330
1F
100
AcDbEntity
  8
0
  6
Continuous
 62
     7
100
AcDbLine
 10
2.84072757233815
 20
7.605188267776878
 30
0.0
 11
2.84072757233815
 21
7.587844667729713
 31
0.0
  0
LINE
  5
223
330
1F
100
AcDbEntity
  8
0
  6
Continuous
 62
     7
100
AcDbLine
 10
2.83772757233815
 20
7.605188267776878
 30
0.0
 11
2.83772757233815
 21
7.587844667729713
 31
0.0
  0
LINE
  5
224
330
1F
100
AcDbEntity
  8
0
  6
Continuous
 62
     7
100
AcDbLine
 10
2.83472757233815
 20
7.605188267776878
 30
0.0
 11
2.83472757233815
 21
7.587844667729713
 31
0.0
  0
LINE
  5
225
330
1F
100
AcDbEntity
  8
0
  6
Continuous
 62
     7
100
AcDbLine
 10
2.83172757233815
 20
7.605188267776878
 30
0.0
 11
2.83172757233815
 21
7.587844667729713
 31
0.0
  0
LINE
  5
226
330
1F
100
AcDbEntity
  8
0
  6
Continuous
 62
     7
100
AcDbLine
 10
2.82872757233815
 20
7.605188267776878
 30
0.0
 11
2.82872757233815
 21
7.587844667729713
 31
0.0
  0
LINE
  5
227
330
1F
100
AcDbEntity
  8
0
  6
Continuous
 62
     7
100
AcDbLine
 10
2.82572757233815
 20
7.605188267776878
 30
0.0
 11
2.82572757233815
 21
7.587844667729713
 31
0.0
  0
LINE
  5
228
330
1F
100
AcDbEntity
  8
0
  6
Continuous
 62
     7
100
AcDbLine
 10
2.82272757233815
 20
7.605188267776878
 30
0.0
 11
2.82272757233815
 21
7.587844667729713
 31
0.0
  0
LINE
  5
229
330
1F
100
AcDbEntity
  8
0
  6
Continuous
 62
     7
100
AcDbLine
 10
2.82872757233815
 20
7.3858867961131
 30
0.0
 11
2.82872757233815
 21
7.403230396160266
 31
0.0
  0
LINE
  5
22A
330
1F
100
AcDbEntity
  8
0
  6
Continuous
 62
     7
100
AcDbLine
 10
2.83172757233815
 20
7.3858867961131
 30
0.0
 11
2.83172757233815
 21
7.403230396160266
 31
0.0
  0
LINE
  5
22B
330
1F
100
AcDbEntity
  8
0
  6
Continuous
 62
     7
100
AcDbLine
 10
2.83472757233815
 20
7.3858867961131
 30
0.0
 11
2.83472757233815
 21
7.403230396160266
 31
0.0
  0
LINE
  5
22C
330
1F
100
AcDbEntity
  8
0
  6
Continuous
 62
     7
100
AcDbLine
 10
2.83772757233815
 20
7.3858867961131
 30
0.0
 11
2.83772757233815
 21
7.403230396160266
 31
0.0
  0
LINE
  5
22D
330
1F
100
AcDbEntity
  8
0
  6
Continuous
 62
     7
100
AcDbLine
 10
2.84072757233815
 20
7.3858867961131
 30
0.0
 11
2.84072757233815
 21
7.403230396160266
 31
0.0
  0
LINE
  5
22E
330
1F
100
AcDbEntity
  8
0
  6
Continuous
 62
     7
100
AcDbLine
 10
2.84372757233815
 20
7.3858867961131
 30
0.0
 11
2.84372757233815
 21
7.403230396160266
 31
0.0
  0
LINE
  5
22F
330
1F
100
AcDbEntity
  8
0
  6
Continuous
 62
     7
100
AcDbLine
 10
2.84672757233815
 20
7.3858867961131
 30
0.0
 11
2.84672757233815
 21
7.403230396160266
 31
0.0
  0
LINE
  5
230
330
1F
100
AcDbEntity
  8
0
  6
Continuous
 62
     7
100
AcDbLine
 10
2.84972757233815
 20
7.3858867961131
 30
0.0
 11
2.84972757233815
 21
7.403230396160266
 31
0.0
  0
LINE
  5
231
330
1F
100
AcDbEntity
  8
0
  6
Continuous
 62
     7
100
AcDbLine
 10
2.85272757233815
 20
7.3858867961131
 30
0.0
 11
2.85272757233815
 21
7.403230396160266
 31
0.0
  0
LINE
  5
232
330
1F
100
AcDbEntity
  8
0
  6
Continuous
 62
     7
100
AcDbLine
 10
2.85572757233815
 20
7.3858867961131
 30
0.0
 11
2.85572757233815
 21
7.403230396160266
 31
0.0
  0
LINE
  5
233
330
1F
100
AcDbEntity
  8
0
  6
Continuous
 62
     7
100
AcDbLine
 10
2.85872757233815
 20
7.3858867961131
 30
0.0
 11
2.85872757233815
 21
7.403230396160266
 31
0.0
  0
LINE
  5
234
330
1F
100
AcDbEntity
  8
0
  6
Continuous
 62
     7
100
AcDbLine
 10
2.860951110805735
 20
7.384404437134711
 30
0.0
 11
2.860951110805735
 21
7.404786982630292
 31
0.0
  0
LINE
  5
235
330
1F
100
AcDbEntity
  8
0
  6
Continuous
 62
     7
100
AcDbLine
 10
2.821083857152697
 20
7.404786982630292
 30
0.0
 11
2.860951110805735
 21
7.404786982630292
 31
0.0
  0
LINE
  5
236
330
1F
100
AcDbEntity
  8
0
  6
Continuous
 62
     7
100
AcDbLine
 10
2.821083857152697
 20
7.384404437134711
 30
0.0
 11
2.860951110805735
 21
7.384404437134711
 31
0.0
  0
LINE
  5
237
330
1F
100
AcDbEntity
  8
0
  6
Continuous
 62
     7
100
AcDbLine
 10
2.821083857152697
 20
7.418953014528957
 30
0.0
 11
2.793808525784131
 21
7.418953014528957
 31
0.0
  0
LINE
  5
238
330
1F
100
AcDbEntity
  8
0
  6
Continuous
 62
     7
100
AcDbLine
 10
2.821083857152697
 20
7.370238405236043
 30
0.0
 11
2.821083857152697
 21
7.418953014528957
 31
0.0
  0
LINE
  5
239
330
1F
100
AcDbEntity
  8
0
  6
Continuous
 62
     7
100
AcDbLine
 10
2.821083857152697
 20
7.370238405236043
 30
0.0
 11
2.793808525784131
 21
7.370238405236043
 31
0.0
  0
LINE
  5
23A
330
1F
100
AcDbEntity
  8
0
  6
Continuous
 62
     7
100
AcDbLine
 10
2.793808525784131
 20
7.42364096210793
 30
0.0
 11
2.785066361438219
 21
7.42364096210793
 31
0.0
  0
LINE
  5
23B
330
1F
100
AcDbEntity
  8
0
  6
Continuous
 62
     7
100
AcDbLine
 10
2.793808525784131
 20
7.365550457657071
 30
0.0
 11
2.793808525784131
 21
7.42364096210793
 31
0.0
  0
LINE
  5
23C
330
1F
100
AcDbEntity
  8
0
  6
Continuous
 62
     7
100
AcDbLine
 10
2.785066361438219
 20
7.432863267483917
 30
0.0
 11
2.776668956818231
 21
7.432863267483917
 31
0.0
  0
LINE
  5
23D
330
1F
100
AcDbEntity
  8
0
  6
Continuous
 62
     7
100
AcDbLine
 10
2.793808525784131
 20
7.365550457657071
 30
0.0
 11
2.785066361438219
 21
7.365550457657071
 31
0.0
  0
LINE
  5
23E
330
1F
100
AcDbEntity
  8
0
  6
Continuous
 62
     7
100
AcDbLine
 10
2.793808525784131
 20
7.407185091306825
 30
0.0
 11
2.821083857152697
 21
7.407185091306825
 31
0.0
  0
LINE
  5
23F
330
1F
100
AcDbEntity
  8
0
  6
Continuous
 62
     7
100
AcDbLine
 10
2.793808525784131
 20
7.382006328458178
 30
0.0
 11
2.821083857152697
 21
7.382006328458178
 31
0.0
  0
LINE
  5
240
330
1F
100
AcDbEntity
  8
0
  6
Continuous
 62
     7
100
AcDbLine
 10
2.785066361438219
 20
7.356328152281084
 30
0.0
 11
2.785066361438219
 21
7.432863267483917
 31
0.0
  0
LINE
  5
241
330
1F
100
AcDbEntity
  8
0
  6
Continuous
 62
     7
100
AcDbLine
 10
2.785066361438219
 20
7.356328152281084
 30
0.0
 11
2.776668956818231
 21
7.356328152281084
 31
0.0
  0
LINE
  5
259
330
1F
100
AcDbEntity
  8
0
  6
Continuous
 62
     7
100
AcDbLine
 10
1.080808311993049
 20
4.153835684204216
 30
0.0
 11
1.069333682363794
 21
4.222483534022485
 31
0.0
  0
LINE
  5
25A
330
1F
100
AcDbEntity
  8
0
  6
Continuous
 62
     7
100
AcDbLine
 10
1.736131025978706
 20
4.164369001076655
 30
0.0
 11
1.764688978051352
 21
4.201691520134341
 31
0.0
  0
LINE
  5
25B
330
1F
100
AcDbEntity
  8
0
  6
Continuous
 62
     7
100
AcDbLine
 10
1.764688978051352
 20
4.201691520134341
 30
0.0
 11
1.778967954087678
 21
4.253368854214244
 31
0.0
  0
LINE
  5
25C
330
1F
100
AcDbEntity
  8
0
  6
Continuous
 62
     7
100
AcDbLine
 10
1.778967954087678
 20
4.253368854214244
 30
0.0
 11
1.754791910005013
 21
4.20169152013435
 31
0.0
  0
LINE
  5
25D
330
1F
100
AcDbEntity
  8
0
  6
Continuous
 62
     7
100
AcDbLine
 10
1.754791910005013
 20
4.20169152013435
 30
0.0
 11
1.73061586592235
 21
4.174266268276168
 31
0.0
  0
LINE
  5
25E
330
1F
100
AcDbEntity
  8
0
  6
Continuous
 62
     7
100
AcDbLine
 10
1.73061586592235
 20
4.174266268276168
 30
0.0
 11
1.648498659342267
 21
4.154892238488921
 31
0.0
  0
LINE
  5
25F
330
1F
100
AcDbEntity
  8
0
  6
Continuous
 62
     7
100
AcDbLine
 10
1.648498659342267
 20
4.154892238488921
 30
0.0
 11
1.69661830393109
 21
4.195118525887345
 31
0.0
  0
LINE
  5
260
330
1F
100
AcDbEntity
  8
0
  6
Continuous
 62
     7
100
AcDbLine
 10
1.69661830393109
 20
4.195118525887345
 30
0.0
 11
1.720718797876003
 21
4.237956315979884
 31
0.0
  0
LINE
  5
261
330
1F
100
AcDbEntity
  8
0
  6
Continuous
 62
     7
100
AcDbLine
 10
1.720718797876003
 20
4.237956315979884
 30
0.0
 11
1.726233957932365
 21
4.270896838872907
 31
0.0
  0
LINE
  5
262
330
1F
100
AcDbEntity
  8
0
  6
Continuous
 62
     7
100
AcDbLine
 10
1.726233957932365
 20
4.270896838872907
 30
0.0
 11
1.726233957932366
 21
4.228059048780373
 31
0.0
  0
LINE
  5
263
330
1F
100
AcDbEntity
  8
0
  6
Continuous
 62
     7
100
AcDbLine
 10
1.726233957932366
 20
4.228059048780373
 30
0.0
 11
1.706439821839683
 21
4.189678806510517
 31
0.0
  0
LINE
  5
264
330
1F
100
AcDbEntity
  8
0
  6
Continuous
 62
     7
100
AcDbLine
 10
1.706439821839683
 20
4.189678806510517
 30
0.0
 11
1.671156408164028
 21
4.160237913516926
 31
0.0
  0
LINE
  5
265
330
1F
100
AcDbEntity
  8
0
  6
Continuous
 62
     7
100
AcDbLine
 10
1.624261830279294
 20
4.154892238488919
 30
0.0
 11
1.573622679660531
 21
4.270896838872905
 31
0.0
  0
LINE
  5
266
330
1F
100
AcDbEntity
  8
0
  6
Continuous
 62
     7
100
AcDbLine
 10
1.573622679660531
 20
4.270896838872905
 30
0.0
 11
1.573622679660532
 21
4.351057148023143
 31
0.0
  0
LINE
  5
267
330
1F
100
AcDbEntity
  8
0
  6
Continuous
 62
     7
100
AcDbLine
 10
1.573622679660532
 20
4.351057148023143
 30
0.0
 11
1.583444197569108
 21
4.27422111182541
 31
0.0
  0
LINE
  5
268
330
1F
100
AcDbEntity
  8
0
  6
Continuous
 62
     7
100
AcDbLine
 10
1.583444197569108
 20
4.27422111182541
 30
0.0
 11
1.637589446513801
 21
4.154892238488919
 31
0.0
  0
LINE
  5
269
330
1F
100
AcDbEntity
  8
0
  6
Continuous
 62
     7
100
AcDbLine
 10
1.637589446513801
 20
4.154892238488919
 30
0.0
 11
1.647132963699392
 21
4.246720308309221
 31
0.0
  0
LINE
  5
26A
330
1F
100
AcDbEntity
  8
0
  6
Continuous
 62
     7
100
AcDbLine
 10
1.647132963699392
 20
4.246720308309221
 30
0.0
 11
1.642751055709396
 21
4.351057148023137
 31
0.0
  0
LINE
  5
26B
330
1F
100
AcDbEntity
  8
0
  6
Continuous
 62
     7
100
AcDbLine
 10
1.642751055709396
 20
4.351057148023137
 30
0.0
 11
1.6373114457908
 21
4.397219211068186
 31
0.0
  0
LINE
  5
26C
330
1F
100
AcDbEntity
  8
0
  6
Continuous
 62
     7
100
AcDbLine
 10
1.6373114457908
 20
4.397219211068186
 30
0.0
 11
1.652648123755739
 21
4.347808426728639
 31
0.0
  0
LINE
  5
26D
330
1F
100
AcDbEntity
  8
0
  6
Continuous
 62
     7
100
AcDbLine
 10
1.652648123755739
 20
4.347808426728639
 30
0.0
 11
1.657030031745734
 21
4.246720308309215
 31
0.0
  0
LINE
  5
26E
330
1F
100
AcDbEntity
  8
0
  6
Continuous
 62
     7
100
AcDbLine
 10
1.657030031745734
 20
4.246720308309215
 30
0.0
 11
1.648498659342267
 21
4.154892238488921
 31
0.0
  0
LINE
  5
26F
330
1F
100
AcDbEntity
  8
0
  6
Continuous
 62
     7
100
AcDbLine
 10
1.648498659342267
 20
4.154892238488921
 30
0.0
 11
1.691103143874725
 21
4.237956315979882
 31
0.0
  0
LINE
  5
270
330
1F
100
AcDbEntity
  8
0
  6
Continuous
 62
     7
100
AcDbLine
 10
1.691103143874725
 20
4.237956315979882
 30
0.0
 11
1.69661830393109
 21
4.289558098401761
 31
0.0
  0
LINE
  5
271
330
1F
100
AcDbEntity
  8
0
  6
Continuous
 62
     7
100
AcDbLine
 10
1.69661830393109
 20
4.289558098401761
 30
0.0
 11
1.696618303931089
 21
4.357630142270143
 31
0.0
  0
LINE
  5
272
330
1F
100
AcDbEntity
  8
0
  6
Continuous
 62
     7
100
AcDbLine
 10
1.696618303931089
 20
4.357630142270143
 30
0.0
 11
1.706439821839681
 21
4.280794106072415
 31
0.0
  0
LINE
  5
273
330
1F
100
AcDbEntity
  8
0
  6
Continuous
 62
     7
100
AcDbLine
 10
1.706439821839681
 20
4.280794106072415
 30
0.0
 11
1.70100021192107
 21
4.228059048780371
 31
0.0
  0
LINE
  5
274
330
1F
100
AcDbEntity
  8
0
  6
Continuous
 62
     7
100
AcDbLine
 10
1.70100021192107
 20
4.228059048780371
 30
0.0
 11
1.664182777033414
 21
4.168003595217051
 31
0.0
  0
LINE
  5
275
330
1F
100
AcDbEntity
  8
0
  6
Continuous
 62
     7
100
AcDbLine
 10
1.610738833519946
 20
4.154892238488917
 30
0.0
 11
1.563725611614193
 21
4.170941995323648
 31
0.0
  0
LINE
  5
276
330
1F
100
AcDbEntity
  8
0
  6
Continuous
 62
     7
100
AcDbLine
 10
1.563725611614193
 20
4.170941995323648
 30
0.0
 11
1.538416315465149
 21
4.189678806510508
 31
0.0
  0
LINE
  5
277
330
1F
100
AcDbEntity
  8
0
  6
Continuous
 62
     7
100
AcDbLine
 10
1.538416315465149
 20
4.189678806510508
 30
0.0
 11
1.519755431438832
 21
4.208340066039375
 31
0.0
  0
LINE
  5
278
330
1F
100
AcDbEntity
  8
0
  6
Continuous
 62
     7
100
AcDbLine
 10
1.519755431438832
 20
4.208340066039375
 30
0.0
 11
1.53841631546514
 21
4.179781539311003
 31
0.0
  0
LINE
  5
279
330
1F
100
AcDbEntity
  8
0
  6
Continuous
 62
     7
100
AcDbLine
 10
1.53841631546514
 20
4.179781539311003
 30
0.0
 11
1.563725611614192
 21
4.158929281699823
 31
0.0
  0
LINE
  5
27A
330
1F
100
AcDbEntity
  8
0
  6
Continuous
 62
     7
100
AcDbLine
 10
1.563725611614192
 20
4.158929281699823
 30
0.0
 11
1.617084587595827
 21
4.146938259296563
 31
0.0
  0
LINE
  5
27B
330
1F
100
AcDbEntity
  8
0
  6
Continuous
 62
     7
100
AcDbLine
 10
1.610738833519946
 20
4.154892238488917
 30
0.0
 11
1.534034407475163
 21
4.225868050698036
 31
0.0
  0
LINE
  5
27C
330
1F
100
AcDbEntity
  8
0
  6
Continuous
 62
     7
100
AcDbLine
 10
1.534034407475163
 20
4.225868050698036
 30
0.0
 11
1.490139777437563
 21
4.314867903835617
 31
0.0
  0
LINE
  5
27D
330
1F
100
AcDbEntity
  8
0
  6
Continuous
 62
     7
100
AcDbLine
 10
1.490139777437563
 20
4.314867903835617
 30
0.0
 11
1.480242709391235
 21
4.369718407551991
 31
0.0
  0
LINE
  5
27E
330
1F
100
AcDbEntity
  8
0
  6
Continuous
 62
     7
100
AcDbLine
 10
1.480242709391235
 20
4.369718407551991
 30
0.0
 11
1.500036845483899
 21
4.314867903835637
 31
0.0
  0
LINE
  5
27F
330
1F
100
AcDbEntity
  8
0
  6
Continuous
 62
     7
100
AcDbLine
 10
1.500036845483899
 20
4.314867903835637
 30
0.0
 11
1.538416315465144
 21
4.234632043027371
 31
0.0
  0
LINE
  5
280
330
1F
100
AcDbEntity
  8
0
  6
Continuous
 62
     7
100
AcDbLine
 10
1.538416315465144
 20
4.234632043027371
 30
0.0
 11
1.624261830279294
 21
4.154892238488919
 31
0.0
  0
LINE
  5
281
330
1F
100
AcDbEntity
  8
0
  6
Continuous
 62
     7
100
AcDbLine
 10
3.554784909522158
 20
4.13613399183984
 30
0.0
 11
3.554784909522158
 21
3.423962875187817
 31
0.0
  0
LINE
  5
282
330
1F
100
AcDbEntity
  8
0
  6
Continuous
 62
     7
100
AcDbLine
 10
1.787983122257686
 20
3.423962875187817
 30
0.0
 11
2.566099074961615
 21
3.423962875187817
 31
0.0
  0
LINE
  5
283
330
1F
100
AcDbEntity
  8
0
  6
Continuous
 62
     7
100
AcDbLine
 10
1.069333682363794
 20
4.222483534022485
 30
0.0
 11
1.057980986379169
 21
4.27728322693737
 31
0.0
  0
LINE
  5
284
330
1F
100
AcDbEntity
  8
0
  6
Continuous
 62
     7
100
AcDbLine
 10
3.554784909522158
 20
3.423962875187817
 30
0.0
 11
2.776668956818231
 21
3.423962875187817
 31
0.0
  0
LINE
  5
285
330
1F
100
AcDbEntity
  8
0
  6
Continuous
 62
     7
100
AcDbLine
 10
1.660465370281907
 20
4.154323413695758
 30
0.0
 11
1.736131025978706
 21
4.164369001076655
 31
0.0
  0
LINE
  5
286
330
1F
100
AcDbEntity
  8
0
  6
Continuous
 62
     7
100
AcDbLine
 10
1.787983122257686
 20
4.13613399183984
 30
0.0
 11
1.787983122257686
 21
3.423962875187817
 31
0.0
  0
LINE
  5
287
330
1F
100
AcDbEntity
  8
0
  6
Continuous
 62
     7
100
AcDbLine
 10
1.057980986379169
 20
4.27728322693737
 30
0.0
 11
1.025669467038319
 21
4.330554641563805
 31
0.0
  0
LINE
  5
288
330
1F
100
AcDbEntity
  8
0
  6
Continuous
 62
     7
100
AcDbLine
 10
1.025669467038319
 20
4.330554641563805
 30
0.0
 11
1.013225165670539
 21
4.374001410050126
 31
0.0
  0
LINE
  5
289
330
1F
100
AcDbEntity
  8
0
  6
Continuous
 62
     7
100
AcDbLine
 10
1.013225165670539
 20
4.374001410050126
 30
0.0
 11
1.020211440122627
 21
4.327716410456668
 31
0.0
  0
LINE
  5
28A
330
1F
100
AcDbEntity
  8
0
  6
Continuous
 62
     7
100
AcDbLine
 10
1.020211440122627
 20
4.327716410456668
 30
0.0
 11
1.045318363934788
 21
4.272916717541763
 31
0.0
  0
LINE
  5
28B
330
1F
100
AcDbEntity
  8
0
  6
Continuous
 62
     7
100
AcDbLine
 10
1.045318363934788
 20
4.272916717541763
 30
0.0
 11
1.057980986379169
 21
4.213968840701036
 31
0.0
  0
LINE
  5
28C
330
1F
100
AcDbEntity
  8
0
  6
Continuous
 62
     7
100
AcDbLine
 10
1.057980986379169
 20
4.213968840701036
 30
0.0
 11
1.06851349789902
 21
4.14894952857486
 31
0.0
  0
LINE
  5
28D
330
1F
100
AcDbEntity
  8
0
  6
Continuous
 62
     7
100
AcDbLine
 10
1.3176309715043
 20
4.136547206522754
 30
0.0
 11
1.317135754711885
 21
4.13613399183984
 31
0.0
  0
LINE
  5
28E
330
1F
100
AcDbEntity
  8
0
  6
Continuous
 62
     7
100
AcDbLine
 10
1.020211440122628
 20
4.202834241742239
 30
0.0
 11
1.013225165670539
 21
4.257633934657136
 31
0.0
  0
LINE
  5
28F
330
1F
100
AcDbEntity
  8
0
  6
Continuous
 62
     7
100
AcDbLine
 10
1.013225165670539
 20
4.257633934657136
 30
0.0
 11
1.020211440122628
 21
4.281431410863209
 31
0.0
  0
LINE
  5
290
330
1F
100
AcDbEntity
  8
0
  6
Continuous
 62
     7
100
AcDbLine
 10
1.020211440122628
 20
4.281431410863209
 30
0.0
 11
1.007548817678233
 21
4.261782118582956
 31
0.0
  0
LINE
  5
291
330
1F
100
AcDbEntity
  8
0
  6
Continuous
 62
     7
100
AcDbLine
 10
1.007548817678233
 20
4.261782118582956
 30
0.0
 11
1.007548817678233
 21
4.206982425668067
 31
0.0
  0
LINE
  5
292
330
1F
100
AcDbEntity
  8
0
  6
Continuous
 62
     7
100
AcDbLine
 10
1.007548817678233
 20
4.206982425668067
 30
0.0
 11
1.052383097812133
 21
4.150889924857146
 31
0.0
  0
LINE
  5
293
330
1F
100
AcDbEntity
  8
0
  6
Continuous
 62
     7
100
AcDbLine
 10
0.9375992407600598
 20
4.163325919526036
 30
0.0
 11
0.9378571135339928
 21
4.163360155447998
 31
0.0
  0
LINE
  5
294
330
1F
100
AcDbEntity
  8
0
  6
Continuous
 62
     7
100
AcDbLine
 10
0.9378571135339928
 20
4.163360155447998
 30
0.0
 11
0.9664150656066381
 21
4.200682674505685
 31
0.0
  0
LINE
  5
295
330
1F
100
AcDbEntity
  8
0
  6
Continuous
 62
     7
100
AcDbLine
 10
0.9664150656066381
 20
4.200682674505685
 30
0.0
 11
0.9806940416429624
 21
4.25236000858558
 31
0.0
  0
LINE
  5
296
330
1F
100
AcDbEntity
  8
0
  6
Continuous
 62
     7
100
AcDbLine
 10
0.9806940416429624
 20
4.25236000858558
 30
0.0
 11
0.9565179975602973
 21
4.200682674505689
 31
0.0
  0
LINE
  5
297
330
1F
100
AcDbEntity
  8
0
  6
Continuous
 62
     7
100
AcDbLine
 10
0.9565179975602973
 20
4.200682674505689
 30
0.0
 11
0.9323419534776288
 21
4.173257422647501
 31
0.0
  0
LINE
  5
298
330
1F
100
AcDbEntity
  8
0
  6
Continuous
 62
     7
100
AcDbLine
 10
0.9323419534776288
 20
4.173257422647501
 30
0.0
 11
0.8502247468975511
 21
4.153883392860259
 31
0.0
  0
LINE
  5
299
330
1F
100
AcDbEntity
  8
0
  6
Continuous
 62
     7
100
AcDbLine
 10
0.8502247468975511
 20
4.153883392860259
 30
0.0
 11
0.8983443914863757
 21
4.194109680258689
 31
0.0
  0
LINE
  5
29A
330
1F
100
AcDbEntity
  8
0
  6
Continuous
 62
     7
100
AcDbLine
 10
0.8983443914863757
 20
4.194109680258689
 30
0.0
 11
0.922444885431288
 21
4.236947470351225
 31
0.0
  0
LINE
  5
29B
330
1F
100
AcDbEntity
  8
0
  6
Continuous
 62
     7
100
AcDbLine
 10
0.922444885431288
 20
4.236947470351225
 30
0.0
 11
0.9279600454876508
 21
4.269887993244248
 31
0.0
  0
LINE
  5
29C
330
1F
100
AcDbEntity
  8
0
  6
Continuous
 62
     7
100
AcDbLine
 10
0.9279600454876508
 20
4.269887993244248
 30
0.0
 11
0.9279600454876508
 21
4.227050203151716
 31
0.0
  0
LINE
  5
29D
330
1F
100
AcDbEntity
  8
0
  6
Continuous
 62
     7
100
AcDbLine
 10
0.9279600454876508
 20
4.227050203151716
 30
0.0
 11
0.9081659093949665
 21
4.188669960881857
 31
0.0
  0
LINE
  5
29E
330
1F
100
AcDbEntity
  8
0
  6
Continuous
 62
     7
100
AcDbLine
 10
0.9081659093949665
 20
4.188669960881857
 30
0.0
 11
0.8728824957193046
 21
4.159229067888261
 31
0.0
  0
LINE
  5
29F
330
1F
100
AcDbEntity
  8
0
  6
Continuous
 62
     7
100
AcDbLine
 10
0.8259879178345801
 20
4.153883392860259
 30
0.0
 11
0.775348767215816
 21
4.269887993244248
 31
0.0
  0
LINE
  5
2A0
330
1F
100
AcDbEntity
  8
0
  6
Continuous
 62
     7
100
AcDbLine
 10
0.775348767215816
 20
4.269887993244248
 30
0.0
 11
0.775348767215816
 21
4.350048302394478
 31
0.0
  0
LINE
  5
2A1
330
1F
100
AcDbEntity
  8
0
  6
Continuous
 62
     7
100
AcDbLine
 10
0.775348767215816
 20
4.350048302394478
 30
0.0
 11
0.7851702851243929
 21
4.273212266196752
 31
0.0
  0
LINE
  5
2A2
330
1F
100
AcDbEntity
  8
0
  6
Continuous
 62
     7
100
AcDbLine
 10
0.7851702851243929
 20
4.273212266196752
 30
0.0
 11
0.8393155340690853
 21
4.153883392860259
 31
0.0
  0
LINE
  5
2A3
330
1F
100
AcDbEntity
  8
0
  6
Continuous
 62
     7
100
AcDbLine
 10
0.8393155340690853
 20
4.153883392860259
 30
0.0
 11
0.8488590512546764
 21
4.245711462680562
 31
0.0
  0
LINE
  5
2A4
330
1F
100
AcDbEntity
  8
0
  6
Continuous
 62
     7
100
AcDbLine
 10
0.8488590512546764
 20
4.245711462680562
 30
0.0
 11
0.8444771432646815
 21
4.350048302394475
 31
0.0
  0
LINE
  5
2A5
330
1F
100
AcDbEntity
  8
0
  6
Continuous
 62
     7
100
AcDbLine
 10
0.8444771432646815
 20
4.350048302394475
 30
0.0
 11
0.8390375333460852
 21
4.396210365439523
 31
0.0
  0
LINE
  5
2A6
330
1F
100
AcDbEntity
  8
0
  6
Continuous
 62
     7
100
AcDbLine
 10
0.8390375333460852
 20
4.396210365439523
 30
0.0
 11
0.8543742113110241
 21
4.346799581099978
 31
0.0
  0
LINE
  5
2A7
330
1F
100
AcDbEntity
  8
0
  6
Continuous
 62
     7
100
AcDbLine
 10
0.8543742113110241
 20
4.346799581099978
 30
0.0
 11
0.8587561193010191
 21
4.245711462680562
 31
0.0
  0
LINE
  5
2A8
330
1F
100
AcDbEntity
  8
0
  6
Continuous
 62
     7
100
AcDbLine
 10
0.8587561193010191
 20
4.245711462680562
 30
0.0
 11
0.8502247468975511
 21
4.153883392860259
 31
0.0
  0
LINE
  5
2A9
330
1F
100
AcDbEntity
  8
0
  6
Continuous
 62
     7
100
AcDbLine
 10
0.8502247468975511
 20
4.153883392860259
 30
0.0
 11
0.8928292314300122
 21
4.236947470351225
 31
0.0
  0
LINE
  5
2AA
330
1F
100
AcDbEntity
  8
0
  6
Continuous
 62
     7
100
AcDbLine
 10
0.8928292314300122
 20
4.236947470351225
 30
0.0
 11
0.8983443914863741
 21
4.288549252773103
 31
0.0
  0
LINE
  5
2AB
330
1F
100
AcDbEntity
  8
0
  6
Continuous
 62
     7
100
AcDbLine
 10
0.8983443914863741
 20
4.288549252773103
 30
0.0
 11
0.8983443914863741
 21
4.356621296641487
 31
0.0
  0
LINE
  5
2AC
330
1F
100
AcDbEntity
  8
0
  6
Continuous
 62
     7
100
AcDbLine
 10
0.8983443914863741
 20
4.356621296641487
 30
0.0
 11
0.9081659093949653
 21
4.279785260443761
 31
0.0
  0
LINE
  5
2AD
330
1F
100
AcDbEntity
  8
0
  6
Continuous
 62
     7
100
AcDbLine
 10
0.9081659093949653
 20
4.279785260443761
 30
0.0
 11
0.9027262994763553
 21
4.227050203151716
 31
0.0
  0
LINE
  5
2AE
330
1F
100
AcDbEntity
  8
0
  6
Continuous
 62
     7
100
AcDbLine
 10
0.9027262994763553
 20
4.227050203151716
 30
0.0
 11
0.8659088645886933
 21
4.166994749588385
 31
0.0
  0
LINE
  5
2AF
330
1F
100
AcDbEntity
  8
0
  6
Continuous
 62
     7
100
AcDbLine
 10
0.8124649210752313
 20
4.153883392860259
 30
0.0
 11
0.7654516991694789
 21
4.16993314969499
 31
0.0
  0
LINE
  5
2B0
330
1F
100
AcDbEntity
  8
0
  6
Continuous
 62
     7
100
AcDbLine
 10
0.7654516991694789
 20
4.16993314969499
 30
0.0
 11
0.7401424030204311
 21
4.188669960881851
 31
0.0
  0
LINE
  5
2B1
330
1F
100
AcDbEntity
  8
0
  6
Continuous
 62
     7
100
AcDbLine
 10
0.7401424030204311
 20
4.188669960881851
 30
0.0
 11
0.7214815189941211
 21
4.207331220410713
 31
0.0
  0
LINE
  5
2B2
330
1F
100
AcDbEntity
  8
0
  6
Continuous
 62
     7
100
AcDbLine
 10
0.7214815189941211
 20
4.207331220410713
 30
0.0
 11
0.7401424030204245
 21
4.178772693682345
 31
0.0
  0
LINE
  5
2B3
330
1F
100
AcDbEntity
  8
0
  6
Continuous
 62
     7
100
AcDbLine
 10
0.7401424030204245
 20
4.178772693682345
 30
0.0
 11
0.7654516991694712
 21
4.157920436071169
 31
0.0
  0
LINE
  5
2B4
330
1F
100
AcDbEntity
  8
0
  6
Continuous
 62
     7
100
AcDbLine
 10
0.7654516991694712
 20
4.157920436071169
 30
0.0
 11
0.8133584864128842
 21
4.147154649274553
 31
0.0
  0
LINE
  5
2B5
330
1F
100
AcDbEntity
  8
0
  6
Continuous
 62
     7
100
AcDbLine
 10
0.8124649210752313
 20
4.153883392860259
 30
0.0
 11
0.7357604950304464
 21
4.224859205069378
 31
0.0
  0
LINE
  5
2B6
330
1F
100
AcDbEntity
  8
0
  6
Continuous
 62
     7
100
AcDbLine
 10
0.7357604950304464
 20
4.224859205069378
 30
0.0
 11
0.6918658649928478
 21
4.31385905820696
 31
0.0
  0
LINE
  5
2B7
330
1F
100
AcDbEntity
  8
0
  6
Continuous
 62
     7
100
AcDbLine
 10
0.6918658649928478
 20
4.31385905820696
 30
0.0
 11
0.6819687969465194
 21
4.368709561923332
 31
0.0
  0
LINE
  5
2B8
330
1F
100
AcDbEntity
  8
0
  6
Continuous
 62
     7
100
AcDbLine
 10
0.6819687969465194
 20
4.368709561923332
 30
0.0
 11
0.7017629330391886
 21
4.313859058206961
 31
0.0
  0
LINE
  5
2B9
330
1F
100
AcDbEntity
  8
0
  6
Continuous
 62
     7
100
AcDbLine
 10
0.7017629330391886
 20
4.313859058206961
 30
0.0
 11
0.7401424030204272
 21
4.233623197398713
 31
0.0
  0
LINE
  5
2BA
330
1F
100
AcDbEntity
  8
0
  6
Continuous
 62
     7
100
AcDbLine
 10
0.7401424030204272
 20
4.233623197398713
 30
0.0
 11
0.8259879178345801
 21
4.153883392860259
 31
0.0
  0
LINE
  5
2BB
330
1F
100
AcDbEntity
  8
0
  6
Continuous
 62
     7
100
AcDbLine
 10
1.406371889360944
 20
4.160335499107052
 30
0.0
 11
1.406629945070422
 21
4.160368327702697
 31
0.0
  0
LINE
  5
2BC
330
1F
100
AcDbEntity
  8
0
  6
Continuous
 62
     7
100
AcDbLine
 10
1.406629945070422
 20
4.160368327702697
 30
0.0
 11
1.435391084001486
 21
4.197534494343649
 31
0.0
  0
LINE
  5
2BD
330
1F
100
AcDbEntity
  8
0
  6
Continuous
 62
     7
100
AcDbLine
 10
1.435391084001486
 20
4.197534494343649
 30
0.0
 11
1.449951771628277
 21
4.249133160897025
 31
0.0
  0
LINE
  5
2BE
330
1F
100
AcDbEntity
  8
0
  6
Continuous
 62
     7
100
AcDbLine
 10
1.449951771628277
 20
4.249133160897025
 30
0.0
 11
1.425494163235195
 21
4.197588487488575
 31
0.0
  0
LINE
  5
2BF
330
1F
100
AcDbEntity
  8
0
  6
Continuous
 62
     7
100
AcDbLine
 10
1.425494163235195
 20
4.197588487488575
 30
0.0
 11
1.401168861317551
 21
4.170295535402238
 31
0.0
  0
LINE
  5
2C0
330
1F
100
AcDbEntity
  8
0
  6
Continuous
 62
     7
100
AcDbLine
 10
1.401168861317551
 20
4.170295535402238
 30
0.0
 11
1.318947182325354
 21
4.15136978177348
 31
0.0
  0
LINE
  5
2C1
330
1F
100
AcDbEntity
  8
0
  6
Continuous
 62
     7
100
AcDbLine
 10
1.281243253310344
 20
4.151252324734381
 30
0.0
 11
1.234230031404572
 21
4.167302081569112
 31
0.0
  0
LINE
  5
2C2
330
1F
100
AcDbEntity
  8
0
  6
Continuous
 62
     7
100
AcDbLine
 10
1.234230031404572
 20
4.167302081569112
 30
0.0
 11
1.208920735255533
 21
4.186038892755979
 31
0.0
  0
LINE
  5
2C3
330
1F
100
AcDbEntity
  8
0
  6
Continuous
 62
     7
100
AcDbLine
 10
1.208920735255533
 20
4.186038892755979
 30
0.0
 11
1.190259851229233
 21
4.204700152284829
 31
0.0
  0
LINE
  5
2C4
330
1F
100
AcDbEntity
  8
0
  6
Continuous
 62
     7
100
AcDbLine
 10
1.190259851229233
 20
4.204700152284829
 30
0.0
 11
1.208920735255538
 21
4.176141625556462
 31
0.0
  0
LINE
  5
2C5
330
1F
100
AcDbEntity
  8
0
  6
Continuous
 62
     7
100
AcDbLine
 10
1.208920735255538
 20
4.176141625556462
 30
0.0
 11
1.23423003140457
 21
4.155289367945288
 31
0.0
  0
LINE
  5
2C6
330
1F
100
AcDbEntity
  8
0
  6
Continuous
 62
     7
100
AcDbLine
 10
1.23423003140457
 20
4.155289367945288
 30
0.0
 11
1.27664417293475
 21
4.145757908393318
 31
0.0
  0
LINE
  5
2C7
330
1F
100
AcDbEntity
  8
0
  6
Continuous
 62
     7
100
AcDbLine
 10
1.281243253310344
 20
4.151252324734381
 30
0.0
 11
1.204538827265543
 21
4.222228136943501
 31
0.0
  0
LINE
  5
2C8
330
1F
100
AcDbEntity
  8
0
  6
Continuous
 62
     7
100
AcDbLine
 10
1.204538827265543
 20
4.222228136943501
 30
0.0
 11
1.160644197227957
 21
4.311227990081082
 31
0.0
  0
LINE
  5
2C9
330
1F
100
AcDbEntity
  8
0
  6
Continuous
 62
     7
100
AcDbLine
 10
1.160644197227957
 20
4.311227990081082
 30
0.0
 11
1.150747129181616
 21
4.366078493797454
 31
0.0
  0
LINE
  5
2CA
330
1F
100
AcDbEntity
  8
0
  6
Continuous
 62
     7
100
AcDbLine
 10
1.150747129181616
 20
4.366078493797454
 30
0.0
 11
1.170541265274301
 21
4.311227990081079
 31
0.0
  0
LINE
  5
2CB
330
1F
100
AcDbEntity
  8
0
  6
Continuous
 62
     7
100
AcDbLine
 10
1.170541265274301
 20
4.311227990081079
 30
0.0
 11
1.208920735255534
 21
4.23099212927284
 31
0.0
  0
LINE
  5
2CC
330
1F
100
AcDbEntity
  8
0
  6
Continuous
 62
     7
100
AcDbLine
 10
1.208920735255534
 20
4.23099212927284
 30
0.0
 11
1.294766250069677
 21
4.151252324734381
 31
0.0
  0
LINE
  5
2CD
330
1F
100
AcDbEntity
  8
0
  6
Continuous
 62
     7
100
AcDbLine
 10
1.3176309715043
 20
4.136547206522754
 30
0.0
 11
1.317380779206204
 21
4.13613399183984
 31
0.0
  0
LINE
  5
2CE
330
1F
100
AcDbEntity
  8
0
  6
Continuous
 62
     7
100
AcDbLine
 10
1.112992688011337
 20
4.263528722341208
 30
0.0
 11
1.112992688011337
 21
4.329244688745127
 31
0.0
  0
LINE
  5
2CF
330
1F
100
AcDbEntity
  8
0
  6
Continuous
 62
     7
100
AcDbLine
 10
1.112992688011337
 20
4.329244688745127
 30
0.0
 11
1.121725531076427
 21
4.239294595195575
 31
0.0
  0
LINE
  5
2D0
330
1F
100
AcDbEntity
  8
0
  6
Continuous
 62
     7
100
AcDbLine
 10
1.121725531076427
 20
4.239294595195575
 30
0.0
 11
1.095160092599632
 21
4.156514436114996
 31
0.0
  0
LINE
  5
2D1
330
1F
100
AcDbEntity
  8
0
  6
Continuous
 62
     7
100
AcDbLine
 10
1.095160092599632
 20
4.156514436114996
 30
0.0
 11
1.152508802880893
 21
4.221610232143349
 31
0.0
  0
LINE
  5
2D2
330
1F
100
AcDbEntity
  8
0
  6
Continuous
 62
     7
100
AcDbLine
 10
1.152508802880893
 20
4.221610232143349
 30
0.0
 11
1.152508802880893
 21
4.280994759923645
 31
0.0
  0
LINE
  5
2D3
330
1F
100
AcDbEntity
  8
0
  6
Continuous
 62
     7
100
AcDbLine
 10
1.152508802880893
 20
4.280994759923645
 30
0.0
 11
1.161241645945997
 21
4.204144194560912
 31
0.0
  0
LINE
  5
2D4
330
1F
100
AcDbEntity
  8
0
  6
Continuous
 62
     7
100
AcDbLine
 10
1.161241645945997
 20
4.204144194560912
 30
0.0
 11
1.103693835075012
 21
4.150889924857146
 31
0.0
  0
LINE
  5
2D5
330
1F
100
AcDbEntity
  8
0
  6
Continuous
 62
     7
100
AcDbLine
 10
1.318947182325354
 20
4.15136978177348
 30
0.0
 11
1.36728556408883
 21
4.191332955342468
 31
0.0
  0
LINE
  5
2D6
330
1F
100
AcDbEntity
  8
0
  6
Continuous
 62
     7
100
AcDbLine
 10
1.36728556408883
 20
4.191332955342468
 30
0.0
 11
1.391619399612878
 21
4.234038628467818
 31
0.0
  0
LINE
  5
2D7
330
1F
100
AcDbEntity
  8
0
  6
Continuous
 62
     7
100
AcDbLine
 10
1.391619399612878
 20
4.234038628467818
 30
0.0
 11
1.397314183588686
 21
4.266948573383936
 31
0.0
  0
LINE
  5
2D8
330
1F
100
AcDbEntity
  8
0
  6
Continuous
 62
     7
100
AcDbLine
 10
1.397314183588686
 20
4.266948573383936
 30
0.0
 11
1.396738377722747
 21
4.224419135025836
 31
0.0
  0
LINE
  5
2D9
330
1F
100
AcDbEntity
  8
0
  6
Continuous
 62
     7
100
AcDbLine
 10
1.396738377722747
 20
4.224419135025836
 30
0.0
 11
1.376944241630061
 21
4.186038892755973
 31
0.0
  0
LINE
  5
2DA
330
1F
100
AcDbEntity
  8
0
  6
Continuous
 62
     7
100
AcDbLine
 10
1.376944241630061
 20
4.186038892755973
 30
0.0
 11
1.341660827954409
 21
4.156597999762387
 31
0.0
  0
LINE
  5
2DB
330
1F
100
AcDbEntity
  8
0
  6
Continuous
 62
     7
100
AcDbLine
 10
1.318947182325354
 20
4.15136978177348
 30
0.0
 11
1.362004186327497
 21
4.234200195741192
 31
0.0
  0
LINE
  5
2DC
330
1F
100
AcDbEntity
  8
0
  6
Continuous
 62
     7
100
AcDbLine
 10
1.362004186327497
 20
4.234200195741192
 30
0.0
 11
1.367800776220528
 21
4.2857711224846
 31
0.0
  0
LINE
  5
2DD
330
1F
100
AcDbEntity
  8
0
  6
Continuous
 62
     7
100
AcDbLine
 10
1.367800776220528
 20
4.2857711224846
 30
0.0
 11
1.368172141125057
 21
4.35384215336064
 31
0.0
  0
LINE
  5
2DE
330
1F
100
AcDbEntity
  8
0
  6
Continuous
 62
     7
100
AcDbLine
 10
1.368172141125057
 20
4.35384215336064
 30
0.0
 11
1.377574336287507
 21
4.276953679590286
 31
0.0
  0
LINE
  5
2DF
330
1F
100
AcDbEntity
  8
0
  6
Continuous
 62
     7
100
AcDbLine
 10
1.377574336287507
 20
4.276953679590286
 30
0.0
 11
1.371014978057167
 21
4.224715609420637
 31
0.0
  0
LINE
  5
2E0
330
1F
100
AcDbEntity
  8
0
  6
Continuous
 62
     7
100
AcDbLine
 10
1.371014978057167
 20
4.224715609420637
 30
0.0
 11
1.334281764906825
 21
4.1640474627995
 31
0.0
  0
LINE
  5
2E1
330
1F
100
AcDbEntity
  8
0
  6
Continuous
 62
     7
100
AcDbLine
 10
1.308093866304195
 20
4.151252324734381
 30
0.0
 11
1.317637383489772
 21
4.243080394554683
 31
0.0
  0
LINE
  5
2E2
330
1F
100
AcDbEntity
  8
0
  6
Continuous
 62
     7
100
AcDbLine
 10
1.317637383489772
 20
4.243080394554683
 30
0.0
 11
1.313255475499792
 21
4.347417234268598
 31
0.0
  0
LINE
  5
2E3
330
1F
100
AcDbEntity
  8
0
  6
Continuous
 62
     7
100
AcDbLine
 10
1.313255475499792
 20
4.347417234268598
 30
0.0
 11
1.307815865581196
 21
4.393579297313644
 31
0.0
  0
LINE
  5
2E4
330
1F
100
AcDbEntity
  8
0
  6
Continuous
 62
     7
100
AcDbLine
 10
1.307815865581196
 20
4.393579297313644
 30
0.0
 11
1.323152543546135
 21
4.3441685129741
 31
0.0
  0
LINE
  5
2E5
330
1F
100
AcDbEntity
  8
0
  6
Continuous
 62
     7
100
AcDbLine
 10
1.323152543546135
 20
4.3441685129741
 30
0.0
 11
1.327534451536115
 21
4.243080394554683
 31
0.0
  0
LINE
  5
2E6
330
1F
100
AcDbEntity
  8
0
  6
Continuous
 62
     7
100
AcDbLine
 10
1.327534451536115
 20
4.243080394554683
 30
0.0
 11
1.318947182325354
 21
4.15136978177348
 31
0.0
  0
LINE
  5
2E7
330
1F
100
AcDbEntity
  8
0
  6
Continuous
 62
     7
100
AcDbLine
 10
1.294766250069677
 20
4.151252324734381
 30
0.0
 11
1.244127099450912
 21
4.26725692511837
 31
0.0
  0
LINE
  5
2E8
330
1F
100
AcDbEntity
  8
0
  6
Continuous
 62
     7
100
AcDbLine
 10
1.244127099450912
 20
4.26725692511837
 30
0.0
 11
1.244127099450912
 21
4.347417234268598
 31
0.0
  0
LINE
  5
2E9
330
1F
100
AcDbEntity
  8
0
  6
Continuous
 62
     7
100
AcDbLine
 10
1.244127099450912
 20
4.347417234268598
 30
0.0
 11
1.253948617359503
 21
4.270581198070873
 31
0.0
  0
LINE
  5
2EA
330
1F
100
AcDbEntity
  8
0
  6
Continuous
 62
     7
100
AcDbLine
 10
1.253948617359503
 20
4.270581198070873
 30
0.0
 11
1.308093866304195
 21
4.151252324734381
 31
0.0
  0
LINE
  5
2EB
330
1F
100
AcDbEntity
  8
0
  6
Continuous
 62
     7
100
AcDbLine
 10
1.406371889360944
 20
4.160335499107052
 30
0.0
 11
1.33241348434186
 21
4.150926869560036
 31
0.0
  0
LINE
  5
2EC
330
1F
100
AcDbEntity
  8
0
  6
Continuous
 62
     7
100
AcDbLine
 10
1.06851349789902
 20
4.14894952857486
 30
0.0
 11
1.020211440122628
 21
4.202834241742239
 31
0.0
  0
LINE
  5
2ED
330
1F
100
AcDbEntity
  8
0
  6
Continuous
 62
     7
100
AcDbLine
 10
1.3176309715043
 20
4.136547206522754
 30
0.0
 11
1.319469739842759
 21
4.13613399183984
 31
0.0
  0
LINE
  5
2EE
330
1F
100
AcDbEntity
  8
0
  6
Continuous
 62
     7
100
AcDbLine
 10
1.080808311993049
 20
4.153835684204216
 30
0.0
 11
1.112992688011337
 21
4.263528722341208
 31
0.0
  0
LINE
  5
2EF
330
1F
100
AcDbEntity
  8
0
  6
Continuous
 62
     0
100
AcDbLine
 10
0.0
 20
11.0
 30
0.0
 11
8.500000000000001
 21
11.0
 31
0.0
  0
LINE
  5
2F0
330
1F
100
AcDbEntity
  8
0
  6
Continuous
 62
     0
100
AcDbLine
 10
0.0
 20
11.0
 30
0.0
 11
0.0
 21
0.0
 31
0.0
  0
LINE
  5
2F1
330
1F
100
AcDbEntity
  8
0
  6
Continuous
 62
     0
100
AcDbLine
 10
8.500000000000001
 20
0.0000000000000016
 30
0.0
 11
0.0
 21
0.0
 31
0.0
  0
CIRCLE
  5
2F8
330
1F
100
AcDbEntity
  8
0
  6
Continuous
 62
     7
100
AcDbCircle
 10
1.571955561495537
 20
0.7920911490527584
 30
0.0
 40
0.3121494894035776
  0
ARC
  5
2F9
330
1F
100
AcDbEntity
  8
0
100
AcDbCircle
 10
2.776668956818231
 20
7.994254890675348
 30
0.0
 40
0.0250000000000004
100
AcDbArc
 50
0.0
 51
90.00000000000305
  0
ARC
  5
2FC
330
1F
100
AcDbEntity
  8
0
100
AcDbCircle
 10
2.566099074961615
 20
7.994254890675348
 30
0.0
 40
0.0250000000000004
100
AcDbArc
 50
90.0
 51
180.0000000000004
  0
ARC
  5
2FD
330
1F
100
AcDbEntity
  8
0
100
AcDbCircle
 10
2.485291486441752
 20
7.7933614013083
 30
0.0
 40
0.0412110558634576
100
AcDbArc
 50
28.14160123226336
 51
195.4612177404416
  0
CIRCLE
  5
2FE
330
1F
100
AcDbEntity
  8
0
  6
Continuous
 62
     7
100
AcDbCircle
 10
2.485291486441752
 20
7.7933614013083
 30
0.0
 40
0.0104267304300531
  0
ARC
  5
2FF
330
1F
100
AcDbEntity
  8
0
100
AcDbCircle
 10
2.582253729536663
 20
7.403533158864442
 30
0.0
 40
0.0510908025923011
100
AcDbArc
 50
185.6162393165486
 51
218.9968906793781
  0
ARC
  5
300
330
1F
100
AcDbEntity
  8
0
100
AcDbCircle
 10
2.582253729536663
 20
7.596479354007478
 30
0.0
 40
0.0510908025923021
100
AcDbArc
 50
141.0031093206213
 51
174.3837606834412
  0
ARC
  5
301
330
1F
100
AcDbEntity
  8
0
100
AcDbCircle
 10
2.582253729536663
 20
7.596479354007478
 30
0.0
 40
0.0510908025923004
100
AcDbArc
 50
185.6162393165505
 51
218.9968906793771
  0
ARC
  5
302
330
1F
100
AcDbEntity
  8
0
100
AcDbCircle
 10
2.582253729536663
 20
7.403533158864442
 30
0.0
 40
0.0510908025923021
100
AcDbArc
 50
141.0031093206213
 51
174.3837606834412
  0
ARC
  5
303
330
1F
100
AcDbEntity
  8
0
100
AcDbCircle
 10
1.61305920748162
 20
8.019760069702593
 30
0.0
 40
0.0200000000000003
100
AcDbArc
 50
117.43045636261
 51
180.0000000000004
  0
ARC
  5
304
330
1F
100
AcDbEntity
  8
0
100
AcDbCircle
 10
1.725563677751814
 20
8.019760069702593
 30
0.0
 40
0.0199999999999999
100
AcDbArc
 50
0.0
 51
62.569543637393
  0
ARC
  5
305
330
1F
100
AcDbEntity
  8
0
100
AcDbCircle
 10
1.721452916039594
 20
7.738396658447769
 30
0.0
 40
0.0064593930275132
100
AcDbArc
 50
0.0
 51
180.0000000000004
  0
ARC
  5
306
330
1F
100
AcDbEntity
  8
0
100
AcDbCircle
 10
1.780233993799218
 20
7.738396658447769
 30
0.0
 40
0.0064593930275128
100
AcDbArc
 50
0.0
 51
180.0000000000004
  0
ARC
  5
307
330
1F
100
AcDbEntity
  8
0
100
AcDbCircle
 10
1.60893930112645
 20
7.738396658447769
 30
0.0
 40
0.006459393027513
100
AcDbArc
 50
0.0
 51
180.0000000000004
  0
ARC
  5
308
330
1F
100
AcDbEntity
  8
0
100
AcDbCircle
 10
1.667720378886074
 20
7.738396658447769
 30
0.0
 40
0.006459393027513
100
AcDbArc
 50
0.0
 51
180.0000000000004
  0
CIRCLE
  5
309
330
1F
100
AcDbEntity
  8
0
  6
Continuous
 62
     7
100
AcDbCircle
 10
1.625220891261331
 20
7.800533833235086
 30
0.0
 40
0.0078767544993109
  0
CIRCLE
  5
30A
330
1F
100
AcDbEntity
  8
0
  6
Continuous
 62
     7
100
AcDbCircle
 10
1.741674370055678
 20
7.800533833235086
 30
0.0
 40
0.0082009492108697
  0
CIRCLE
  5
30B
330
1F
100
AcDbEntity
  8
0
  6
SLDCENTERLINES0
 62
     7
100
AcDbCircle
 10
1.625220891261331
 20
7.800533833235086
 30
0.0
 40
0.015849968195767
  0
CIRCLE
  5
30C
330
1F
100
AcDbEntity
  8
0
  6
SLDCENTERLINES0
 62
     7
100
AcDbCircle
 10
1.741674370055678
 20
7.800533833235086
 30
0.0
 40
0.0156199840746667
  0
CIRCLE
  5
312
330
1F
100
AcDbEntity
  8
0
  6
Continuous
 62
     7
100
AcDbCircle
 10
3.222789976943434
 20
2.854366120486244
 30
0.0
 40
0.0117386689032095
  0
CIRCLE
  5
313
330
1F
100
AcDbEntity
  8
0
  6
Continuous
 62
     7
100
AcDbCircle
 10
3.018631400394552
 20
3.296132835517302
 30
0.0
 40
0.0117093218820544
  0
CIRCLE
  5
314
330
1F
100
AcDbEntity
  8
0
  6
Continuous
 62
     7
100
AcDbCircle
 10
3.12469535354868
 20
3.296132835517302
 30
0.0
 40
0.0133130557629926
  0
CIRCLE
  5
315
330
1F
100
AcDbEntity
  8
0
  6
Continuous
 62
     7
100
AcDbCircle
 10
3.186870774363169
 20
3.213841837380479
 30
0.0
 40
0.0139268793436695
  0
CIRCLE
  5
316
330
1F
100
AcDbEntity
  8
0
  6
Continuous
 62
     7
100
AcDbCircle
 10
3.316286853134568
 20
2.854366120486244
 30
0.0
 40
0.0198298694825205
  0
CIRCLE
  5
317
330
1F
100
AcDbEntity
  8
0
  6
Continuous
 62
     7
100
AcDbCircle
 10
3.439116082640568
 20
2.913030827115976
 30
0.0
 40
0.0103705529685497
  0
CIRCLE
  5
318
330
1F
100
AcDbEntity
  8
0
  6
Continuous
 62
     7
100
AcDbCircle
 10
3.230759306702808
 20
3.281503324737423
 30
0.0
 40
0.009143444237425
  0
CIRCLE
  5
319
330
1F
100
AcDbEntity
  8
0
  6
Continuous
 62
     7
100
AcDbCircle
 10
3.163097819345864
 20
3.360136945179276
 30
0.0
 40
0.009143444237425
  0
CIRCLE
  5
31A
330
1F
100
AcDbEntity
  8
0
  6
Continuous
 62
     7
100
AcDbCircle
 10
3.033260911174432
 20
3.345507434399396
 30
0.0
 40
0.0172518160835758
  0
CIRCLE
  5
31B
330
1F
100
AcDbEntity
  8
0
  6
Continuous
 62
     7
100
AcDbCircle
 10
3.283791283279873
 20
3.285160702432392
 30
0.0
 40
0.0147433608298624
  0
ARC
  5
31C
330
1F
100
AcDbEntity
  8
0
100
AcDbCircle
 10
2.957913674109217
 20
3.346632240563964
 30
0.0
 40
0.4076767363788799
100
AcDbArc
 50
356.708562070675
 51
358.2297784382278
  0
ARC
  5
31D
330
1F
100
AcDbEntity
  8
0
100
AcDbCircle
 10
2.957913674109217
 20
3.346632240563964
 30
0.0
 40
0.4076767363788796
100
AcDbArc
 50
180.0000000000004
 51
270.0000000000003
  0
CIRCLE
  5
31E
330
1F
100
AcDbEntity
  8
0
  6
Continuous
 62
     7
100
AcDbCircle
 10
1.998998214223297
 20
2.704229943926046
 30
0.0
 40
0.0106629967003253
  0
CIRCLE
  5
31F
330
1F
100
AcDbEntity
  8
0
  6
Continuous
 62
     7
100
AcDbCircle
 10
3.20757350647464
 20
2.762460453461659
 30
0.0
 40
0.0308361086203916
  0
CIRCLE
  5
320
330
1F
100
AcDbEntity
  8
0
  6
Continuous
 62
     7
100
AcDbCircle
 10
2.14346463317461
 20
2.77920618667293
 30
0.0
 40
0.0133130557629918
  0
CIRCLE
  5
321
330
1F
100
AcDbEntity
  8
0
  6
Continuous
 62
     7
100
AcDbCircle
 10
2.205640053989099
 20
2.696915188536106
 30
0.0
 40
0.0139268793436686
  0
CIRCLE
  5
322
330
1F
100
AcDbEntity
  8
0
  6
Continuous
 62
     7
100
AcDbCircle
 10
2.070317079275211
 20
2.651197967348982
 30
0.0
 40
0.0103446262778946
  0
CIRCLE
  5
323
330
1F
100
AcDbEntity
  8
0
  6
Continuous
 62
     7
100
AcDbCircle
 10
2.11054823391988
 20
2.706058632773531
 30
0.0
 40
0.0065934314064763
  0
CIRCLE
  5
324
330
1F
100
AcDbEntity
  8
0
  6
Continuous
 62
     7
100
AcDbCircle
 10
2.249528586328738
 20
2.76457667589305
 30
0.0
 40
0.0091434442374256
  0
CIRCLE
  5
325
330
1F
100
AcDbEntity
  8
0
  6
Continuous
 62
     7
100
AcDbCircle
 10
3.311221615992147
 20
3.230300037007844
 30
0.0
 40
0.0098477908246762
  0
CIRCLE
  5
326
330
1F
100
AcDbEntity
  8
0
  6
Continuous
 62
     7
100
AcDbCircle
 10
3.287448660974843
 20
3.374766455959156
 30
0.0
 40
0.0142825164784031
  0
CIRCLE
  5
327
330
1F
100
AcDbEntity
  8
0
  6
Continuous
 62
     7
100
AcDbCircle
 10
3.100922398531376
 20
3.398539410976461
 30
0.0
 40
0.0133130557629922
  0
CIRCLE
  5
328
330
1F
100
AcDbEntity
  8
0
  6
Continuous
 62
     7
100
AcDbCircle
 10
2.916224824935394
 20
3.398539410976461
 30
0.0
 40
0.0091434442374253
  0
ARC
  5
329
330
1F
100
AcDbEntity
  8
0
100
AcDbCircle
 10
2.957913674109217
 20
3.346632240563964
 30
0.0
 40
0.1653825800597115
100
AcDbArc
 50
180.0000000000004
 51
270.0000000000005
  0
CIRCLE
  5
32A
330
1F
100
AcDbEntity
  8
0
  6
Continuous
 62
     7
100
AcDbCircle
 10
2.181867098971794
 20
2.843210296334904
 30
0.0
 40
0.0091434442374256
  0
CIRCLE
  5
32B
330
1F
100
AcDbEntity
  8
0
  6
Continuous
 62
     7
100
AcDbCircle
 10
2.052030190800361
 20
2.828580785555024
 30
0.0
 40
0.0172518160835758
  0
CIRCLE
  5
32C
330
1F
100
AcDbEntity
  8
0
  6
Continuous
 62
     7
100
AcDbCircle
 10
2.302560562905802
 20
2.76823405358802
 30
0.0
 40
0.0147433608298638
  0
CIRCLE
  5
32D
330
1F
100
AcDbEntity
  8
0
  6
Continuous
 62
     7
100
AcDbCircle
 10
1.898420327611624
 20
2.693257810841136
 30
0.0
 40
0.020850260840553
  0
CIRCLE
  5
32E
330
1F
100
AcDbEntity
  8
0
  6
Continuous
 62
     7
100
AcDbCircle
 10
1.924021971476413
 20
2.773720120130475
 30
0.0
 40
0.0103446262778941
  0
CIRCLE
  5
32F
330
1F
100
AcDbEntity
  8
0
  6
Continuous
 62
     7
100
AcDbCircle
 10
2.329990895618076
 20
2.713373388163471
 30
0.0
 40
0.0098477908246753
  0
CIRCLE
  5
330
330
1F
100
AcDbEntity
  8
0
  6
Continuous
 62
     7
100
AcDbCircle
 10
2.306217940600772
 20
2.857839807114784
 30
0.0
 40
0.0142825164784035
  0
CIRCLE
  5
331
330
1F
100
AcDbEntity
  8
0
  6
Continuous
 62
     7
100
AcDbCircle
 10
1.960647576380737
 20
3.207797383701535
 30
0.0
 40
0.0106629967003258
  0
CIRCLE
  5
332
330
1F
100
AcDbEntity
  8
0
  6
Continuous
 62
     7
100
AcDbCircle
 10
1.999050042177922
 20
3.282773626448419
 30
0.0
 40
0.0117093218820545
  0
CIRCLE
  5
333
330
1F
100
AcDbEntity
  8
0
  6
Continuous
 62
     7
100
AcDbCircle
 10
3.439116082640568
 20
2.819533950924841
 30
0.0
 40
0.0109996324930744
  0
CIRCLE
  5
334
330
1F
100
AcDbEntity
  8
0
  6
Continuous
 62
     7
100
AcDbCircle
 10
3.101794019519612
 20
2.858032664650602
 30
0.0
 40
0.0103705529685507
  0
CIRCLE
  5
335
330
1F
100
AcDbEntity
  8
0
  6
Continuous
 62
     7
100
AcDbCircle
 10
3.273582817399384
 20
2.666560133816276
 30
0.0
 40
0.0075758294932801
  0
CIRCLE
  5
336
330
1F
100
AcDbEntity
  8
0
  6
Continuous
 62
     7
100
AcDbCircle
 10
1.934994104561324
 20
2.881612762132088
 30
0.0
 40
0.0091434442374242
  0
CIRCLE
  5
337
330
1F
100
AcDbEntity
  8
0
  6
Continuous
 62
     7
100
AcDbCircle
 10
2.10511399533205
 20
3.282773626448419
 30
0.0
 40
0.0133130557629926
  0
CIRCLE
  5
338
330
1F
100
AcDbEntity
  8
0
  6
Continuous
 62
     7
100
AcDbCircle
 10
2.167289416146539
 20
3.200482628311596
 30
0.0
 40
0.0139268793436695
  0
CIRCLE
  5
339
330
1F
100
AcDbEntity
  8
0
  6
Continuous
 62
     7
100
AcDbCircle
 10
2.07219759607732
 20
3.209626072549021
 30
0.0
 40
0.006593431406476
  0
CIRCLE
  5
33A
330
1F
100
AcDbEntity
  8
0
  6
Continuous
 62
     7
100
AcDbCircle
 10
2.211177948486178
 20
3.268144115668539
 30
0.0
 40
0.0091434442374252
  0
CIRCLE
  5
33B
330
1F
100
AcDbEntity
  8
0
  6
Continuous
 62
     7
100
AcDbCircle
 10
2.013679552957801
 20
3.332148225330513
 30
0.0
 40
0.017251816083575
  0
CIRCLE
  5
33C
330
1F
100
AcDbEntity
  8
0
  6
Continuous
 62
     7
100
AcDbCircle
 10
2.264209925063243
 20
3.271801493363509
 30
0.0
 40
0.0147433608298625
  0
CIRCLE
  5
33D
330
1F
100
AcDbEntity
  8
0
  6
Continuous
 62
     7
100
AcDbCircle
 10
1.860069689769063
 20
3.196825250616626
 30
0.0
 40
0.0208502608405529
  0
CIRCLE
  5
33E
330
1F
100
AcDbEntity
  8
0
  6
Continuous
 62
     7
100
AcDbCircle
 10
1.885671333633854
 20
3.277287559905964
 30
0.0
 40
0.0103446262778946
  0
CIRCLE
  5
33F
330
1F
100
AcDbEntity
  8
0
  6
Continuous
 62
     7
100
AcDbCircle
 10
2.291640257775516
 20
3.216940827938961
 30
0.0
 40
0.0098477908246762
  0
CIRCLE
  5
340
330
1F
100
AcDbEntity
  8
0
  6
Continuous
 62
     7
100
AcDbCircle
 10
2.267867302758212
 20
3.361407246890273
 30
0.0
 40
0.0142825164784031
  0
CIRCLE
  5
341
330
1F
100
AcDbEntity
  8
0
  6
Continuous
 62
     7
100
AcDbCircle
 10
2.081341040314745
 20
3.385180201907578
 30
0.0
 40
0.0133130557629922
  0
CIRCLE
  5
342
330
1F
100
AcDbEntity
  8
0
  6
Continuous
 62
     7
100
AcDbCircle
 10
1.896643466718763
 20
3.385180201907578
 30
0.0
 40
0.0091434442374253
  0
CIRCLE
  5
343
330
1F
100
AcDbEntity
  8
0
  6
Continuous
 62
     7
100
AcDbCircle
 10
1.970423204034247
 20
2.961442327016531
 30
0.0
 40
0.0106629967003258
  0
CIRCLE
  5
344
330
1F
100
AcDbEntity
  8
0
  6
Continuous
 62
     7
100
AcDbCircle
 10
2.008825669831431
 20
3.036418569763415
 30
0.0
 40
0.0117093218820552
  0
CIRCLE
  5
345
330
1F
100
AcDbEntity
  8
0
  6
Continuous
 62
     7
100
AcDbCircle
 10
2.11488962298556
 20
3.036418569763415
 30
0.0
 40
0.0133130557629917
  0
CIRCLE
  5
346
330
1F
100
AcDbEntity
  8
0
  6
Continuous
 62
     7
100
AcDbCircle
 10
2.177065043800049
 20
2.954127571626591
 30
0.0
 40
0.0139268793436686
  0
CIRCLE
  5
347
330
1F
100
AcDbEntity
  8
0
  6
Continuous
 62
     7
100
AcDbCircle
 10
2.041742069086161
 20
2.908410350439467
 30
0.0
 40
0.0103446262778945
  0
CIRCLE
  5
348
330
1F
100
AcDbEntity
  8
0
  6
Continuous
 62
     7
100
AcDbCircle
 10
2.081973223730831
 20
2.963271015864016
 30
0.0
 40
0.006593431406476
  0
CIRCLE
  5
349
330
1F
100
AcDbEntity
  8
0
  6
Continuous
 62
     7
100
AcDbCircle
 10
2.220953576139688
 20
3.021789058983535
 30
0.0
 40
0.009143444237425
  0
CIRCLE
  5
34A
330
1F
100
AcDbEntity
  8
0
  6
Continuous
 62
     7
100
AcDbCircle
 10
2.153292088782744
 20
3.100422679425389
 30
0.0
 40
0.009143444237425
  0
CIRCLE
  5
34B
330
1F
100
AcDbEntity
  8
0
  6
Continuous
 62
     7
100
AcDbCircle
 10
2.023455180611311
 20
3.085793168645509
 30
0.0
 40
0.0172518160835758
  0
CIRCLE
  5
34C
330
1F
100
AcDbEntity
  8
0
  6
Continuous
 62
     7
100
AcDbCircle
 10
2.273985552716752
 20
3.025446436678505
 30
0.0
 40
0.0147433608298636
  0
CIRCLE
  5
34D
330
1F
100
AcDbEntity
  8
0
  6
Continuous
 62
     7
100
AcDbCircle
 10
1.869845317422574
 20
2.950470193931621
 30
0.0
 40
0.0208502608405526
  0
CIRCLE
  5
34E
330
1F
100
AcDbEntity
  8
0
  6
Continuous
 62
     7
100
AcDbCircle
 10
1.895446961287363
 20
3.03093250322096
 30
0.0
 40
0.0103446262778946
  0
CIRCLE
  5
34F
330
1F
100
AcDbEntity
  8
0
  6
Continuous
 62
     7
100
AcDbCircle
 10
2.301415885429026
 20
2.970585771253956
 30
0.0
 40
0.009847790824675
  0
CIRCLE
  5
350
330
1F
100
AcDbEntity
  8
0
  6
Continuous
 62
     7
100
AcDbCircle
 10
2.277642930411722
 20
3.115052190205269
 30
0.0
 40
0.0142825164784029
  0
CIRCLE
  5
351
330
1F
100
AcDbEntity
  8
0
  6
Continuous
 62
     7
100
AcDbCircle
 10
2.091116667968255
 20
3.138825145222573
 30
0.0
 40
0.0133130557629918
  0
CIRCLE
  5
352
330
1F
100
AcDbEntity
  8
0
  6
Continuous
 62
     7
100
AcDbCircle
 10
1.906419094372274
 20
3.138825145222573
 30
0.0
 40
0.0091434442374241
  0
CIRCLE
  5
353
330
1F
100
AcDbEntity
  8
0
  6
Continuous
 62
     7
100
AcDbCircle
 10
2.537059551779204
 20
2.693880888734592
 30
0.0
 40
0.0106629967003253
  0
CIRCLE
  5
354
330
1F
100
AcDbEntity
  8
0
  6
Continuous
 62
     7
100
AcDbCircle
 10
2.575462017576388
 20
2.768857131481476
 30
0.0
 40
0.0117093218820548
  0
CIRCLE
  5
355
330
1F
100
AcDbEntity
  8
0
  6
Continuous
 62
     7
100
AcDbCircle
 10
2.681525970730517
 20
2.768857131481476
 30
0.0
 40
0.0133130557629918
  0
CIRCLE
  5
356
330
1F
100
AcDbEntity
  8
0
  6
Continuous
 62
     7
100
AcDbCircle
 10
2.743701391545006
 20
2.686566133344652
 30
0.0
 40
0.0139268793436686
  0
CIRCLE
  5
357
330
1F
100
AcDbEntity
  8
0
  6
Continuous
 62
     7
100
AcDbCircle
 10
2.608378416831118
 20
2.640848912157528
 30
0.0
 40
0.0103446262778945
  0
CIRCLE
  5
358
330
1F
100
AcDbEntity
  8
0
  6
Continuous
 62
     7
100
AcDbCircle
 10
2.648609571475787
 20
2.695709577582077
 30
0.0
 40
0.0065934314064765
  0
CIRCLE
  5
359
330
1F
100
AcDbEntity
  8
0
  6
Continuous
 62
     7
100
AcDbCircle
 10
2.787589923884644
 20
2.754227620701596
 30
0.0
 40
0.0091434442374255
  0
CIRCLE
  5
35A
330
1F
100
AcDbEntity
  8
0
  6
Continuous
 62
     7
100
AcDbCircle
 10
2.7199284365277
 20
2.832861241143449
 30
0.0
 40
0.0091434442374255
  0
CIRCLE
  5
35B
330
1F
100
AcDbEntity
  8
0
  6
Continuous
 62
     7
100
AcDbCircle
 10
2.590091528356268
 20
2.818231730363569
 30
0.0
 40
0.0172518160835758
  0
CIRCLE
  5
35C
330
1F
100
AcDbEntity
  8
0
  6
Continuous
 62
     7
100
AcDbCircle
 10
2.840621900461708
 20
2.757884998396566
 30
0.0
 40
0.0147433608298636
  0
CIRCLE
  5
35D
330
1F
100
AcDbEntity
  8
0
  6
Continuous
 62
     7
100
AcDbCircle
 10
2.46208330903232
 20
2.763371064939021
 30
0.0
 40
0.0103446262778942
  0
CIRCLE
  5
35E
330
1F
100
AcDbEntity
  8
0
  6
Continuous
 62
     7
100
AcDbCircle
 10
2.868052233173983
 20
2.703024332972017
 30
0.0
 40
0.009847790824675
  0
CIRCLE
  5
35F
330
1F
100
AcDbEntity
  8
0
  6
Continuous
 62
     7
100
AcDbCircle
 10
2.844279278156679
 20
2.847490751923329
 30
0.0
 40
0.0142825164784034
  0
CIRCLE
  5
360
330
1F
100
AcDbEntity
  8
0
  6
Continuous
 62
     7
100
AcDbCircle
 10
2.657753015713212
 20
2.871263706940634
 30
0.0
 40
0.0133130557629918
  0
CIRCLE
  5
361
330
1F
100
AcDbEntity
  8
0
  6
Continuous
 62
     7
100
AcDbCircle
 10
2.47305544211723
 20
2.871263706940634
 30
0.0
 40
0.0091434442374241
  0
CIRCLE
  5
362
330
1F
100
AcDbEntity
  8
0
  6
Continuous
 62
     7
100
AcDbCircle
 10
2.486345792363661
 20
2.961437229801328
 30
0.0
 40
0.0106629967003258
  0
CIRCLE
  5
363
330
1F
100
AcDbEntity
  8
0
  6
Continuous
 62
     7
100
AcDbCircle
 10
2.524748258160845
 20
3.036413472548212
 30
0.0
 40
0.0117093218820554
  0
CIRCLE
  5
364
330
1F
100
AcDbEntity
  8
0
  6
Continuous
 62
     7
100
AcDbCircle
 10
2.382624496079815
 20
3.199474672786764
 30
0.0
 40
0.0337647409223097
  0
CIRCLE
  5
365
330
1F
100
AcDbEntity
  8
0
  6
Continuous
 62
     7
100
AcDbCircle
 10
2.436442767791802
 20
3.273026310793147
 30
0.0
 40
0.0089697119519976
  0
CIRCLE
  5
366
330
1F
100
AcDbEntity
  8
0
  6
Continuous
 62
     7
100
AcDbCircle
 10
2.557664657415576
 20
2.908405253224264
 30
0.0
 40
0.0103446262778946
  0
CIRCLE
  5
367
330
1F
100
AcDbEntity
  8
0
  6
Continuous
 62
     7
100
AcDbCircle
 10
2.385315409665415
 20
3.355547660751528
 30
0.0
 40
0.0261509794513586
  0
CIRCLE
  5
368
330
1F
100
AcDbEntity
  8
0
  6
Continuous
 62
     7
100
AcDbCircle
 10
2.993630966671046
 20
2.858032664650602
 30
0.0
 40
0.0073330883287163
  0
CIRCLE
  5
369
330
1F
100
AcDbEntity
  8
0
  6
Continuous
 62
     7
100
AcDbCircle
 10
2.510891376993386
 20
3.220105010276359
 30
0.0
 40
0.0108381441885886
  0
CIRCLE
  5
36A
330
1F
100
AcDbEntity
  8
0
  6
Continuous
 62
     7
100
AcDbCircle
 10
2.539377768940725
 20
3.085788071430306
 30
0.0
 40
0.0172518160835758
  0
CIRCLE
  5
36B
330
1F
100
AcDbEntity
  8
0
  6
Continuous
 62
     7
100
AcDbCircle
 10
2.339569878710224
 20
3.077486590239591
 30
0.0
 40
0.0156649284751172
  0
CIRCLE
  5
36C
330
1F
100
AcDbEntity
  8
0
  6
Continuous
 62
     7
100
AcDbCircle
 10
2.385767905751988
 20
2.950465096716419
 30
0.0
 40
0.0208502608405525
  0
CIRCLE
  5
36D
330
1F
100
AcDbEntity
  8
0
  6
Continuous
 62
     7
100
AcDbCircle
 10
2.411369549616777
 20
3.030927406005758
 30
0.0
 40
0.0103446262778946
  0
CIRCLE
  5
36E
330
1F
100
AcDbEntity
  8
0
  6
Continuous
 62
     7
100
AcDbCircle
 10
2.383040799231538
 20
2.831550350042097
 30
0.0
 40
0.017285851757789
  0
CIRCLE
  5
36F
330
1F
100
AcDbEntity
  8
0
  6
Continuous
 62
     7
100
AcDbCircle
 10
2.534059128682501
 20
3.159955288689425
 30
0.0
 40
0.0107202301746289
  0
CIRCLE
  5
370
330
1F
100
AcDbEntity
  8
0
  6
Continuous
 62
     7
100
AcDbCircle
 10
2.232022469780577
 20
2.908258072937823
 30
0.0
 40
0.0160803452619435
  0
CIRCLE
  5
371
330
1F
100
AcDbEntity
  8
0
  6
Continuous
 62
     7
100
AcDbCircle
 10
2.422341682701688
 20
3.138820048007371
 30
0.0
 40
0.0091434442374241
  0
CIRCLE
  5
372
330
1F
100
AcDbEntity
  8
0
  6
Continuous
 62
     7
100
AcDbCircle
 10
2.977525651673419
 20
2.706900300336541
 30
0.0
 40
0.028865103130397
  0
CIRCLE
  5
373
330
1F
100
AcDbEntity
  8
0
  6
Continuous
 62
     7
100
AcDbCircle
 10
3.385035429556967
 20
3.327753432523827
 30
0.0
 40
0.02062077446385
  0
CIRCLE
  5
374
330
1F
100
AcDbEntity
  8
0
  6
Continuous
 62
     7
100
AcDbCircle
 10
3.039462768725523
 20
2.786535053445617
 30
0.0
 40
0.0151175488706421
  0
CIRCLE
  5
375
330
1F
100
AcDbEntity
  8
0
  6
Continuous
 62
     7
100
AcDbCircle
 10
3.156792181984986
 20
2.90386446670508
 30
0.0
 40
0.0117386689032106
  0
CIRCLE
  5
376
330
1F
100
AcDbEntity
  8
0
  6
Continuous
 62
     7
100
AcDbCircle
 10
2.744818061536336
 20
2.922793914943906
 30
0.0
 40
0.0103446262778946
  0
CIRCLE
  5
377
330
1F
100
AcDbEntity
  8
0
  6
Continuous
 62
     7
100
AcDbCircle
 10
3.325453213545464
 20
2.918530643362513
 30
0.0
 40
0.0066099564941736
  0
CIRCLE
  5
378
330
1F
100
AcDbEntity
  8
0
  6
Continuous
 62
     7
100
AcDbCircle
 10
3.114161283081432
 20
2.692517602293592
 30
0.0
 40
0.015160694904722
  0
CIRCLE
  5
379
330
1F
100
AcDbEntity
  8
0
  6
Continuous
 62
     7
100
AcDbCircle
 10
3.464781891791076
 20
3.219187264839886
 30
0.0
 40
0.0229708333498305
  0
CIRCLE
  5
37A
330
1F
100
AcDbEntity
  8
0
  6
Continuous
 62
     7
100
AcDbCircle
 10
3.055962217465135
 20
3.206354360264632
 30
0.0
 40
0.0133464222152146
  0
CIRCLE
  5
37B
330
1F
100
AcDbEntity
  8
0
  6
Continuous
 62
     7
100
AcDbCircle
 10
2.572921309872748
 20
2.96485375843606
 30
0.0
 40
0.020850260840553
  0
CIRCLE
  5
37C
330
1F
100
AcDbEntity
  8
0
  6
Continuous
 62
     7
100
AcDbCircle
 10
2.598522953737539
 20
3.0453160677254
 30
0.0
 40
0.0103446262778946
  0
CIRCLE
  5
37D
330
1F
100
AcDbEntity
  8
0
  6
Continuous
 62
     7
100
AcDbCircle
 10
2.900134090479911
 20
3.239353257743856
 30
0.0
 40
0.013219912988347
  0
CIRCLE
  5
37E
330
1F
100
AcDbEntity
  8
0
  6
Continuous
 62
     7
100
AcDbCircle
 10
2.900134090479911
 20
3.310850868948842
 30
0.0
 40
0.0238325370683289
  0
CIRCLE
  5
37F
330
1F
100
AcDbEntity
  8
0
  6
Continuous
 62
     7
100
AcDbCircle
 10
3.406609476621389
 20
2.73806281276293
 30
0.0
 40
0.0191769307239312
  0
CIRCLE
  5
380
330
1F
100
AcDbEntity
  8
0
  6
Continuous
 62
     7
100
AcDbCircle
 10
3.34188733542812
 20
2.690120485953101
 30
0.0
 40
0.014382698042949
  0
CIRCLE
  5
381
330
1F
100
AcDbEntity
  8
0
  6
Continuous
 62
     7
100
AcDbCircle
 10
2.900134090479911
 20
2.892864834212005
 30
0.0
 40
0.0109996324930759
  0
CIRCLE
  5
382
330
1F
100
AcDbEntity
  8
0
  6
Continuous
 62
     7
100
AcDbCircle
 10
3.392226778578441
 20
3.219883197201712
 30
0.0
 40
0.0098835638687404
  0
CIRCLE
  5
383
330
1F
100
AcDbEntity
  8
0
  6
Continuous
 62
     7
100
AcDbCircle
 10
3.466537385133675
 20
3.291796687416456
 30
0.0
 40
0.0098835638687415
  0
CIRCLE
  5
384
330
1F
100
AcDbEntity
  8
0
  6
Continuous
 62
     7
100
AcDbCircle
 10
2.918466811301703
 20
2.788368325527796
 30
0.0
 40
0.0098724722988533
  0
CIRCLE
  5
385
330
1F
100
AcDbEntity
  8
0
  6
Continuous
 62
     7
100
AcDbCircle
 10
3.492905664879081
 20
3.36610729397169
 30
0.0
 40
0.0086429258788952
  0
CIRCLE
  5
386
330
1F
100
AcDbEntity
  8
0
  6
Continuous
 62
     7
100
AcDbCircle
 10
3.411403709302372
 20
3.387681341036114
 30
0.0
 40
0.0086429258788951
  0
CIRCLE
  5
387
330
1F
100
AcDbEntity
  8
0
  6
Continuous
 62
     7
100
AcDbCircle
 10
3.47372873415515
 20
2.692517602293592
 30
0.0
 40
0.0067800688786183
  0
CIRCLE
  5
388
330
1F
100
AcDbEntity
  8
0
  6
Continuous
 62
     7
100
AcDbCircle
 10
3.17648630793421
 20
2.658957973526712
 30
0.0
 40
0.0098835638687403
  0
CIRCLE
  5
389
330
1F
100
AcDbEntity
  8
0
  6
Continuous
 62
     7
100
AcDbCircle
 10
3.140529562826838
 20
2.759636859827353
 30
0.0
 40
0.0086429258788952
  0
CIRCLE
  5
38A
330
1F
100
AcDbEntity
  8
0
  6
Continuous
 62
     7
100
AcDbCircle
 10
2.96314295363047
 20
2.759636859827353
 30
0.0
 40
0.0071913490214752
  0
CIRCLE
  5
38B
330
1F
100
AcDbEntity
  8
0
  6
Continuous
 62
     7
100
AcDbCircle
 10
3.035056443845215
 20
2.644575275483763
 30
0.0
 40
0.0101701033179273
  0
CIRCLE
  5
38C
330
1F
100
AcDbEntity
  8
0
  6
Continuous
 62
     7
100
AcDbCircle
 10
2.821713089541475
 20
2.663752206207695
 30
0.0
 40
0.0169501721965455
  0
CIRCLE
  5
38D
330
1F
100
AcDbEntity
  8
0
  6
Continuous
 62
     7
100
AcDbCircle
 10
3.468934501474168
 20
2.764431092508336
 30
0.0
 40
0.0086429258788938
  0
CIRCLE
  5
38E
330
1F
100
AcDbEntity
  8
0
  6
Continuous
 62
     7
100
AcDbCircle
 10
3.32510752104468
 20
2.764431092508336
 30
0.0
 40
0.0071913490214751
  0
CIRCLE
  5
38F
330
1F
100
AcDbEntity
  8
0
  6
Continuous
 62
     7
100
AcDbCircle
 10
3.533656642667437
 20
2.723680114719981
 30
0.0
 40
0.0101701033179282
  0
SPLINE
  5
390
330
1F
100
AcDbEntity
  8
0
  6
Continuous
 62
     7
100
AcDbSpline
210
0.0
220
0.0
230
1.0
 70
    12
 71
     3
 72
    12
 73
     8
 74
     0
 42
0.0000000001
 43
0.0000000001
 40
0.0
 40
0.0
 40
0.0
 40
0.0
 40
0.0371435449081765
 40
0.664778141216239
 40
0.7902529495713994
 40
0.9289944191273898
 40
1.0
 40
1.0
 40
1.0
 40
1.0
 10
1.694586647462834
 20
7.669823399656713
 30
0.0
 41
1.0
 10
1.694177250458283
 20
7.654814589588993
 30
0.0
 41
1.0
 10
1.686850050526847
 20
7.386193786610931
 30
0.0
 41
1.0
 10
2.145812621964406
 20
7.958450672562236
 30
0.0
 41
1.0
 10
2.422553123183801
 20
8.09830419728874
 30
0.0
 41
1.0
 10
2.571035324307102
 20
8.098762498444763
 30
0.0
 41
1.0
 10
2.627616245254056
 20
8.039363282348453
 30
0.0
 41
1.0
 10
2.646770560654133
 20
8.019254890675348
 30
0.0
 41
1.0
  0
SPLINE
  5
391
330
1F
100
AcDbEntity
  8
0
  6
Continuous
 62
     7
100
AcDbSpline
210
0.0
220
0.0
230
1.0
 70
    12
 71
     3
 72
    15
 73
    11
 74
     0
 42
0.0000000001
 43
0.0000000001
 40
0.0
 40
0.0
 40
0.0
 40
0.0
 40
0.0261373621311466
 40
0.248428093740341
 40
0.4187982584947394
 40
0.5776984556842307
 40
0.7212913176917441
 40
0.8502940814329148
 40
0.9297543539812085
 40
1.0
 40
1.0
 40
1.0
 40
1.0
 10
1.744235308718785
 20
7.669823399656713
 30
0.0
 41
1.0
 10
1.743708059535521
 20
7.658855362796072
 30
0.0
 41
1.0
 10
1.73869670801247
 20
7.554607333645669
 30
0.0
 41
1.0
 10
1.971138865007936
 20
7.801685697259603
 30
0.0
 41
1.0
 10
2.090069355909417
 20
7.906995457353273
 30
0.0
 41
1.0
 10
2.230163432752202
 20
8.040952336019397
 30
0.0
 41
1.0
 10
2.371297068389795
 20
8.126506533240601
 30
0.0
 41
1.0
 10
2.51437570157082
 20
8.144977000012232
 30
0.0
 41
1.0
 10
2.613500803456233
 20
8.091058206368607
 30
0.0
 41
1.0
 10
2.644946098243821
 20
8.042186622516677
 30
0.0
 41
1.0
 10
2.659700992824797
 20
8.019254890675348
 30
0.0
 41
1.0
  0
SPLINE
  5
392
330
1F
100
AcDbEntity
  8
0
  6
Continuous
 62
     7
100
AcDbSpline
210
0.0
220
0.0
230
1.0
 70
    12
 71
     3
 72
    15
 73
    11
 74
     0
 42
0.0000000001
 43
0.0000000001
 40
0.0
 40
0.0
 40
0.0
 40
0.0
 40
0.0504457244774437
 40
0.1324672472891225
 40
0.3007296688129327
 40
0.5248282688716994
 40
0.6816770887823087
 40
0.8177049648771051
 40
0.9078106608776435
 40
1.0
 40
1.0
 40
1.0
 40
1.0
 10
1.637730150698609
 20
7.669823399656714
 30
0.0
 41
1.0
 10
1.638479749843997
 20
7.648488793324465
 30
0.0
 41
1.0
 10
1.640448149275034
 20
7.592465481099185
 30
0.0
 41
1.0
 10
1.740847129012987
 20
7.471053718948778
 30
0.0
 41
1.0
 10
1.939152264559354
 20
7.656077477531481
 30
0.0
 41
1.0
 10
2.08334182885839
 20
7.802057819064699
 30
0.0
 41
1.0
 10
2.251332242304029
 20
7.954986330492849
 30
0.0
 41
1.0
 10
2.38994397598766
 20
8.032178040703438
 30
0.0
 41
1.0
 10
2.526247723630052
 20
8.083727537088716
 30
0.0
 41
1.0
 10
2.595804562122398
 20
8.04090891262345
 30
0.0
 41
1.0
 10
2.630980500774413
 20
8.019254890675348
 30
0.0
 41
1.0
  0
SPLINE
  5
393
330
1F
100
AcDbEntity
  8
0
  6
Continuous
 62
     7
100
AcDbSpline
210
0.0
220
0.0
230
1.0
 70
    12
 71
     3
 72
    10
 73
     6
 74
     0
 42
0.0000000001
 43
0.0000000001
 40
0.3485108399321151
 40
0.3485108399321151
 40
0.3485108399321151
 40
0.3485108399321151
 40
0.3657899505533215
 40
0.6783493795764552
 40
1.0
 40
1.0
 40
1.0
 40
1.0
 10
4.874645573663928
 20
3.370084651477249
 30
0.0
 41
1.0
 10
4.745885077459726
 20
3.352977158310655
 30
0.0
 41
1.0
 10
4.556624901062975
 20
3.318087999674188
 30
0.0
 41
1.0
 10
4.283687009202698
 20
3.135188139518863
 30
0.0
 41
1.0
 10
3.947537675097535
 20
3.12560848993393
 30
0.0
 41
1.0
 10
3.777053713255209
 20
3.120750004586493
 30
0.0
 41
1.0
  0
SPLINE
  5
394
330
1F
100
AcDbEntity
  8
0
  6
Continuous
 62
     7
100
AcDbSpline
210
0.0
220
0.0
230
1.0
 70
    12
 71
     3
 72
    12
 73
     8
 74
     0
 42
0.0000000001
 43
0.0000000001
 40
0.2478707674742985
 40
0.2478707674742985
 40
0.2478707674742985
 40
0.2478707674742985
 40
0.2948835003176283
 40
0.3947000889077127
 40
0.6101744895384417
 40
0.851763628892367
 40
0.9999999999999998
 40
0.9999999999999998
 40
0.9999999999999998
 40
0.9999999999999998
 10
4.871224009266693
 20
3.257061154452565
 30
0.0
 41
1.0
 10
4.831341974379788
 20
3.252324463303439
 30
0.0
 41
1.0
 10
4.751303526190631
 20
3.247515837789604
 30
0.0
 41
1.0
 10
4.581151824513634
 20
3.229192831815066
 30
0.0
 41
1.0
 10
4.336929057204403
 20
3.082130972928838
 30
0.0
 41
1.0
 10
4.038035372272188
 20
3.062014680106303
 30
0.0
 41
1.0
 10
3.848954316854001
 20
3.043134335155918
 30
0.0
 41
1.0
 10
3.777053713255209
 20
3.035954831132716
 30
0.0
 41
1.0
  0
DIMENSION
  5
3A6
330
1F
100
AcDbEntity
  8
0
100
AcDbDimension
  2
*D0
 10
1.787983122257688
 20
3.917225704934307
 30
0.0
 11
2.671384015889923
 21
3.917225704934313
 31
0.0
 70
    32
  1
12"<>
 71
     5
 42
1.766801787264471
  3
SLDDIMSTYLE0
100
AcDbAlignedDimension
 13
3.554784909522158
 23
4.13613399183984
 33
0.0
 14
1.787983122257686
 24
4.13613399183984
 34
0.0
 50
180.0000000000004
100
AcDbRotatedDimension
  0
DIMENSION
  5
3B2
330
1F
100
AcDbEntity
  8
0
100
AcDbDimension
  2
*D1
 10
1.626298362384913
 20
3.423962875187817
 30
0.0
 11
1.626298362384912
 21
3.780048433513829
 31
0.0
 70
    32
  1
8"<>
 71
     5
 42
0.7121711166520237
  3
SLDDIMSTYLE0
100
AcDbAlignedDimension
 13
2.566099074961615
 23
4.13613399183984
 33
0.0
 14
1.787983122257686
 24
3.423962875187817
 34
0.0
 50
90.0
100
AcDbRotatedDimension
  0
MTEXT
  5
3B3
330
1F
100
AcDbEntity
  8
0
 62
     7
100
AcDbMText
 10
5.540680279746879
 20
8.445089052777159
 30
0.0
 40
0.09
 41
0.0
 71
     1
 72
     5
  1
5    1"  GALVANIZED PIPE\P     25 to 50 INCHES HIGH.\P{\Ftxt.shx;\H1.156x;      }
 73
     1
 44
1.0
  0
MTEXT
  5
3B5
330
1F
100
AcDbEntity
  8
0
 62
     7
100
AcDbMText
 10
5.55425928900776
 20
6.80246794564377
 30
0.0
 40
0.0899999999999999
 41
0.0
 71
     1
 72
     5
  1
9    CONNECT TO SENSOR WIRE \P     FROM THE LEIT 2.
 73
     1
 44
1.0
  0
MTEXT
  5
3B6
330
1F
100
AcDbEntity
  8
0
 62
     7
100
AcDbMText
 10
5.560077476587721
 20
10.54976241008827
 30
0.0
 40
0.09
 41
0.0
 71
     1
 72
     5
  1
1    "MINI CLIK"  RAIN SENSOR                                               
 73
     1
 44
1.0
  0
MTEXT
  5
3B7
330
1F
100
AcDbEntity
  8
0
 62
     7
100
AcDbMText
 10
5.557799483942901
 20
10.10852556331877
 30
0.0
 40
0.09
 41
0.0
 71
     1
 72
     5
  1
2    DIG PLASTIC  PIPE CAP\P     1"   CAP  PART No. 23-001 \P     WITH HOLE FOR WIRES.
 73
     1
 44
1.0
  0
MTEXT
  5
3BA
330
1F
100
AcDbEntity
  8
0
 62
     7
100
AcDbMText
 10
5.548198818266484
 20
7.976515540458745
 30
0.0
 40
0.09
 41
0.0
 71
     1
 72
     5
  1
6    12"  X  12"  CONCRETE BASE\P     8" DEEP  MINIMUM.
 73
     1
 44
1.0
  0
MTEXT
  5
3BB
330
1F
100
AcDbEntity
  8
0
 62
     7
100
AcDbMText
 10
5.542234347268042
 20
9.050476702888722
 30
0.0
 40
0.09
 41
0.0
 71
     1
 72
     5
  1
4    (2)  #8-32  MACHINE SCREWS\P     WITH WASHER, LOCK WASHER\P     AND NUT.
 73
     1
 44
1.0
  0
MTEXT
  5
3BC
330
1F
100
AcDbEntity
  8
0
 62
     7
100
AcDbMText
 10
5.542234347268035
 20
9.514358781621979
 30
0.0
 40
0.09
 41
0.0
 71
     1
 72
     5
  1
3    DRILL TWO 3/16 HOLES IN PIPE \P     FOR SENSOR BRACKET.
 73
     1
 44
1.0
  0
MTEXT
  5
3BE
330
1F
100
AcDbEntity
  8
0
 62
     7
100
AcDbMText
 10
5.543918984387602
 20
7.140333348252742
 30
0.0
 40
0.09
 41
0.0
 71
     1
 72
     5
  1
8    FINISH GRADE.
 73
     1
 44
1.0
  0
MTEXT
  5
3BF
330
1F
100
AcDbEntity
  8
0
 62
     7
100
AcDbMText
 10
5.524183167224872
 20
6.013527321726249
 30
0.0
 40
0.0899999999999999
 41
0.0
 71
     1
 72
     5
  1
11    GRAVEL.
 73
     1
 44
1.0
  0
MTEXT
  5
3CA
330
1F
100
AcDbEntity
  8
0
 62
     7
100
AcDbMText
 10
1.492795696727792
 20
0.9645925108442419
 30
0.0
 40
0.3
 41
0.0
 71
     1
 72
     5
  1
{\fArial|b0|i0|c0|p34;6}
 73
     1
 44
1.0
  0
MTEXT
  5
3CB
330
1F
100
AcDbEntity
  8
0
 62
     7
100
AcDbMText
 10
2.278505529753748
 20
1.100804537405191
 30
0.0
 40
0.1875
 41
0.0
 71
     1
 72
     5
  1
\fCentury Gothic|b0|i0|c0|p34;RAIN SENSOR ASSEMBLY
 73
     1
 44
1.0
  0
MTEXT
  5
3CC
330
1F
100
AcDbEntity
  8
0
 62
     7
100
AcDbMText
 10
2.23588085134819
 20
0.6919900096895985
 30
0.0
 40
0.1875
 41
0.0
 71
     1
 72
     5
  1
\fCentury Gothic|b0|i0|c0|p34; COLUMN MOUNTED 
 73
     1
 44
1.0
  0
LEADER
  5
3CD
330
1F
100
AcDbEntity
  8
0
 62
     7
100
AcDbLeader
  3
SLDDIMSTYLE2
 76
     2
 10
1.734777110757203
 20
8.03751148238596
 30
0.0
 10
3.623830582083803
 20
9.191935493035513
 30
0.0
1001
ACAD
1000
DSTYLE
1002
{
1070
   176
1070
     0
1070
    77
1070
     0
1070
    40
1040
1.0
1070
   147
1040
1.5
1002
}
  0
INSERT
  5
3D4
330
1F
100
AcDbEntity
  8
0
100
AcDbBlockReference
  2
NOTE21
 10
3.623830582083803
 20
9.191935493035513
 30
0.0
  0
LEADER
  5
3D5
330
1F
100
AcDbEntity
  8
0
 62
     7
100
AcDbLeader
  3
SLDDIMSTYLE2
 76
     2
 10
2.794742108101989
 20
8.011528025963256
 30
0.0
 10
3.66816883330755
 20
8.501572680333772
 30
0.0
1001
ACAD
1000
DSTYLE
1002
{
1070
   176
1070
     0
1070
    77
1070
     0
1070
    40
1040
1.0
1070
   147
1040
1.5
1002
}
  0
INSERT
  5
3DB
330
1F
100
AcDbEntity
  8
0
100
AcDbBlockReference
  2
NOTE22
 10
3.66816883330755
 20
8.501572680333772
 30
0.0
  0
LEADER
  5
3DC
330
1F
100
AcDbEntity
  8
0
 62
     7
100
AcDbLeader
  3
SLDDIMSTYLE2
 76
     2
 10
2.82572757233815
 20
7.3858867961131
 30
0.0
 10
3.716734457555084
 20
7.568125829184139
 30
0.0
1001
ACAD
1000
DSTYLE
1002
{
1070
   176
1070
     0
1070
    77
1070
     0
1070
    40
1040
1.0
1070
   147
1040
1.5
1002
}
  0
INSERT
  5
3E2
330
1F
100
AcDbEntity
  8
0
100
AcDbBlockReference
  2
NOTE23
 10
3.716734457555084
 20
7.568125829184139
 30
0.0
  0
LEADER
  5
3E3
330
1F
100
AcDbEntity
  8
0
 62
     7
100
AcDbLeader
  3
SLDDIMSTYLE2
 76
     2
 10
2.821083857152692
 20
7.586288081259688
 30
0.0
 10
3.698054525106265
 20
7.984140306428566
 30
0.0
1001
ACAD
1000
DSTYLE
1002
{
1070
   176
1070
     0
1070
    77
1070
     0
1070
    40
1040
1.0
1070
   147
1040
1.5
1002
}
  0
INSERT
  5
3E9
330
1F
100
AcDbEntity
  8
0
100
AcDbBlockReference
  2
NOTE24
 10
3.698054525106265
 20
7.984140306428566
 30
0.0
  0
LEADER
  5
3EA
330
1F
100
AcDbEntity
  8
0
 62
     7
100
AcDbLeader
  3
SLDDIMSTYLE2
 76
     2
 10
2.776668956818231
 20
6.546647269303325
 30
0.0
 10
3.739632711262419
 20
6.943206400941512
 30
0.0
1001
ACAD
1000
DSTYLE
1002
{
1070
   176
1070
     0
1070
    77
1070
     0
1070
    40
1040
1.0
1070
   147
1040
1.5
1002
}
  0
INSERT
  5
3F0
330
1F
100
AcDbEntity
  8
0
100
AcDbBlockReference
  2
NOTE25
 10
3.739632711262419
 20
6.943206400941512
 30
0.0
  0
LEADER
  5
3F1
330
1F
100
AcDbEntity
  8
0
 62
     7
100
AcDbLeader
  3
SLDDIMSTYLE2
 76
     2
 10
2.968844521628457
 20
4.13613399183984
 30
0.0
 10
3.406439645766637
 20
4.722818849993926
 30
0.0
1001
ACAD
1000
DSTYLE
1002
{
1070
   176
1070
     0
1070
    77
1070
     0
1070
    40
1040
1.0
1070
   147
1040
1.5
1002
}
  0
INSERT
  5
3F7
330
1F
100
AcDbEntity
  8
0
100
AcDbBlockReference
  2
NOTE26
 10
3.406439645766637
 20
4.722818849993926
 30
0.0
  0
LEADER
  5
3F8
330
1F
100
AcDbEntity
  8
0
 62
     7
100
AcDbLeader
  3
SLDDIMSTYLE2
 76
     2
 10
4.14702529005908
 20
4.13613399183984
 30
0.0
 10
4.578267309920368
 20
4.728696828298428
 30
0.0
1001
ACAD
1000
DSTYLE
1002
{
1070
   176
1070
     0
1070
    77
1070
     0
1070
    40
1040
1.0
1070
   147
1040
1.5
1002
}
  0
INSERT
  5
3FE
330
1F
100
AcDbEntity
  8
0
100
AcDbBlockReference
  2
NOTE27
 10
4.578267309920368
 20
4.728696828298428
 30
0.0
  0
LEADER
  5
40D
330
1F
100
AcDbEntity
  8
0
 62
     7
100
AcDbLeader
  3
SLDDIMSTYLE2
 76
     2
 10
4.486036921901372
 20
3.17161804366508
 30
0.0
 10
4.826597712282914
 20
2.832117473036978
 30
0.0
1001
ACAD
1000
DSTYLE
1002
{
1070
   176
1070
     0
1070
    77
1070
     0
1070
    40
1040
1.0
1070
   147
1040
1.5
1002
}
  0
LEADER
  5
41B
330
1F
100
AcDbEntity
  8
0
 62
     7
100
AcDbLeader
  3
SLDDIMSTYLE2
 76
     2
 10
2.918466811301703
 20
2.788368325527796
 30
0.0
 10
3.300610045471705
 20
2.367123884448803
 30
0.0
1001
ACAD
1000
DSTYLE
1002
{
1070
   176
1070
     0
1070
    77
1070
     0
1070
    40
1040
1.0
1070
   147
1040
1.5
1002
}
  0
MTEXT
  5
429
330
1F
100
AcDbEntity
  8
0
 62
     7
100
AcDbMText
 10
6.799808561913877
 20
10.84037095678932
 30
0.0
 40
0.1041666666666667
 41
0.0
 71
     1
 72
     5
  1
\fCentury Gothic|b0|i0|c0|p34;LEGEND
 73
     1
 44
1.0
  0
LEADER
  5
42A
330
1F
100
AcDbEntity
  8
0
 62
     7
100
AcDbLeader
  3
SLDDIMSTYLE2
 76
     2
 10
2.848887007508454
 20
3.224109624249892
 30
0.0
 10
3.977577693465893
 20
4.723206127306781
 30
0.0
1001
ACAD
1000
DSTYLE
1002
{
1070
   176
1070
     0
1070
    77
1070
     0
1070
    40
1040
1.0
1070
   147
1040
1.5
1002
}
  0
INSERT
  5
430
330
1F
100
AcDbEntity
  8
0
100
AcDbBlockReference
  2
NOTE35
 10
3.977577693465893
 20
4.723206127306781
 30
0.0
  0
LEADER
  5
438
330
1F
100
AcDbEntity
  8
0
 62
     7
100
AcDbLeader
  3
SLDDIMSTYLE2
 76
     2
 10
3.461015178101018
 20
2.956322911780259
 30
0.0
 10
3.840600425062587
 20
2.5362588992785
 30
0.0
1001
ACAD
1000
DSTYLE
1002
{
1070
   176
1070
     0
1070
    77
1070
     0
1070
    40
1040
1.0
1070
   147
1040
1.5
1002
}
  0
MTEXT
  5
43F
330
1F
100
AcDbEntity
  8
0
 62
     7
100
AcDbMText
 10
5.543858389531578
 20
7.509071251008975
 30
0.0
 40
0.09
 41
0.0
 71
     1
 72
     5
  1
7    1"  PIPE ELBOW.
 73
     1
 44
1.0
  0
MTEXT
  5
440
330
1F
100
AcDbEntity
  8
0
 62
     7
100
AcDbMText
 10
5.525699886508438
 20
6.357341551888064
 30
0.0
 40
0.0899999999999999
 41
0.0
 71
     1
 72
     5
  1
10    1"  NIPPLE.
 73
     1
 44
1.0
  0
LINE
  5
486
330
1F
100
AcDbEntity
  8
0
  6
Continuous
100
AcDbLine
 10
8.500000000000001
 20
11.0
 30
0.0
 11
8.500000000000001
 21
0.0000000000000016
 31
0.0
  0
CIRCLE
  5
496
330
1F
100
AcDbEntity
  8
0
  6
Continuous
100
AcDbCircle
 10
3.443215877829231
 20
2.227006729659464
 30
0.0
 40
0.197
  0
MTEXT
  5
498
330
1F
100
AcDbEntity
  8
0
  6
Continuous
100
AcDbMText
 10
3.353713583427278
 20
2.298577553140418
 30
0.0
 40
0.13
 41
0.31
 71
     1
 72
     5
  1
11
 73
     1
 44
1.0
  0
CIRCLE
  5
49A
330
1F
100
AcDbEntity
  8
0
  6
Continuous
100
AcDbCircle
 10
3.962667909719698
 20
2.382611045511293
 30
0.0
 40
0.197
  0
MTEXT
  5
49C
330
1F
100
AcDbEntity
  8
0
  6
Continuous
100
AcDbMText
 10
3.874033107162098
 20
2.454689331087141
 30
0.0
 40
0.13
 41
0.31
 71
     1
 72
     5
  1
10
 73
     1
 44
1.0
  0
CIRCLE
  5
4A0
330
1F
100
AcDbEntity
  8
0
  6
Continuous
100
AcDbCircle
 10
4.961858360179974
 20
2.683347461128253
 30
0.0
 40
0.197
  0
MTEXT
  5
4A3
330
1F
100
AcDbEntity
  8
0
  6
Continuous
100
AcDbMText
 10
4.867767111474954
 20
2.741859413283354
 30
0.0
 40
0.13
 41
0.36
 71
     1
 72
     5
  1
9
 73
     1
 44
1.0
  0
CIRCLE
  5
4BC
330
1F
100
AcDbEntity
  8
0
  6
Continuous
100
AcDbCircle
 10
5.582341070579903
 20
10.49319181279507
 30
0.0
 40
0.1149323807717462
  0
CIRCLE
  5
4BD
330
1F
100
AcDbEntity
  8
0
  6
Continuous
100
AcDbCircle
 10
5.582341070579903
 20
10.05670333260834
 30
0.0
 40
0.1149323807717462
  0
CIRCLE
  5
4BE
330
1F
100
AcDbEntity
  8
0
  6
Continuous
100
AcDbCircle
 10
5.582341070579903
 20
9.458673644765577
 30
0.0
 40
0.1149323807717462
  0
CIRCLE
  5
4BF
330
1F
100
AcDbEntity
  8
0
  6
Continuous
100
AcDbCircle
 10
5.582341070579903
 20
8.98770030425323
 30
0.0
 40
0.1149323807717462
  0
CIRCLE
  5
4C0
330
1F
100
AcDbEntity
  8
0
  6
Continuous
100
AcDbCircle
 10
5.582341070579903
 20
8.382580849635248
 30
0.0
 40
0.1149323807717462
  0
CIRCLE
  5
4C1
330
1F
100
AcDbEntity
  8
0
  6
Continuous
100
AcDbCircle
 10
5.588367410057816
 20
7.912288301012802
 30
0.0
 40
0.1149323807717462
  0
CIRCLE
  5
4C2
330
1F
100
AcDbEntity
  8
0
  6
Continuous
100
AcDbCircle
 10
5.582341070579903
 20
7.455400951779523
 30
0.0
 40
0.1149323807717462
  0
CIRCLE
  5
4C3
330
1F
100
AcDbEntity
  8
0
  6
Continuous
100
AcDbCircle
 10
5.582341070579903
 20
7.085124510984577
 30
0.0
 40
0.1149323807717462
  0
CIRCLE
  5
4C8
330
1F
100
AcDbEntity
  8
0
  6
Continuous
100
AcDbCircle
 10
5.585813351756988
 20
6.757062434567176
 30
0.0
 40
0.1149323807717462
  0
CIRCLE
  5
4C9
330
1F
100
AcDbEntity
  8
0
  6
Continuous
100
AcDbCircle
 10
5.585813351756988
 20
6.296593356974782
 30
0.0
 40
0.1149323807717462
  0
CIRCLE
  5
4CA
330
1F
100
AcDbEntity
  8
0
  6
Continuous
100
AcDbCircle
 10
5.585813351756988
 20
5.962847867861389
 30
0.0
 40
0.1149323807717462
  0
MTEXT
  5
4E4
330
1F
100
AcDbEntity
  8
0
100
AcDbMText
 10
0.0212285998083733
 20
0.0862843233847487
 30
9.014866294703786
 40
0.0684360496240188
 41
0.24
 71
     1
 72
     5
  1
L-6
 73
     1
 44
1.0
  0
SPLINE
  5
635
330
1F
100
AcDbEntity
  8
0
  6
Continuous
100
AcDbSpline
210
0.0
220
0.0
230
1.0
 70
     8
 71
     3
 72
    13
 73
     9
 74
     7
 42
0.0000000001
 43
0.0000000001
 44
0.0000000001
 40
0.0
 40
0.0
 40
0.0
 40
0.0
 40
0.0764058265394614
 40
0.1251602534719945
 40
0.1702714854449472
 40
0.1974112714610966
 40
0.2567508395224291
 40
0.3011955497669495
 40
0.3011955497669495
 40
0.3011955497669495
 40
0.3011955497669495
 10
4.793713329781809
 20
3.446088940863479
 30
0.0
 10
4.817463848291817
 20
3.435562455021221
 30
0.0
 10
4.856369531947613
 20
3.418319036608544
 30
0.0
 10
4.883698668375861
 20
3.359132579882618
 30
0.0
 10
4.859156111514907
 20
3.322854503186677
 30
0.0
 10
4.857211136075092
 20
3.277875989165518
 30
0.0
 10
4.881298295104492
 20
3.237725461808704
 30
0.0
 10
4.907931125171405
 20
3.215826350417285
 30
0.0
 10
4.919336401911174
 20
3.206448247333735
 30
0.0
 11
4.793713329781809
 21
3.446088940863479
 31
0.0
 11
4.857952405774078
 21
3.40472239103348
 31
0.0
 11
4.875082796605475
 21
3.359076538478365
 31
0.0
 11
4.860807485629244
 21
3.31628356304256
 31
0.0
 11
4.859379945701661
 21
3.289181346993728
 31
0.0
 11
4.886503116026155
 21
3.236403340501876
 31
0.0
 11
4.919336401911174
 21
3.206448247333735
 31
0.0
  0
MTEXT
  5
678
330
1F
100
AcDbEntity
  8
0
 62
     7
100
AcDbMText
 10
6.001397853583789
 20
10.40154711293588
 30
0.0
 40
0.0899999999999999
 41
0.0
 71
     1
 72
     5
  1
{\fCentury Gothic|b0|i0|c0|p34;(OR EQUAL)                                               }
 73
     1
 44
1.0
  0
TEXT
  5
6C0
330
1F
100
AcDbEntity
  8
0
100
AcDbText
 10
7.603436234256376
 20
0.1639913656821401
 30
-3.004955431567928
 40
0.07
  1
NOT TO SCALE
100
AcDbText
  0
MTEXT
  5
786
330
1F
100
AcDbEntity
  8
0
 62
     7
100
AcDbMText
 10
7.596568002515759
 20
0.1035063150376803
 30
0.0
 40
0.07
 41
0.0
 71
     1
 72
     5
  1
{\fCentury Gothic|b0|i0|c0|p0;DATE: }1{\fCentury Gothic|b0|i0|c0|p0;-}5{\fCentury Gothic|b0|i0|c0|p0;-}10
 73
     1
 44
1.0
  0
ENDSEC
  0
SECTION
  2
OBJECTS
  0
DICTIONARY
  5
C
330
0
100
AcDbDictionary
281
     1
  3
ACAD_COLOR
350
6C
  3
ACAD_GROUP
350
D
  3
ACAD_LAYOUT
350
1A
  3
ACAD_MATERIAL
350
6B
  3
ACAD_MLEADERSTYLE
350
741
  3
ACAD_MLINESTYLE
350
17
  3
ACAD_PLOTSETTINGS
350
19
  3
ACAD_PLOTSTYLENAME
350
E
  3
ACAD_TABLESTYLE
350
92
  3
ACDBHEADERROUNDTRIPXREC
350
742
  3
AcDbVariableDictionary
350
59
  3
ASE_INDEX_DICTIONARY
350
46C
  3
DWGPROPS
350
745
  0
DICTIONARY
  5
6C
102
{ACAD_REACTORS
330
C
102
}
330
C
100
AcDbDictionary
281
     1
  0
DICTIONARY
  5
D
102
{ACAD_REACTORS
330
C
102
}
330
C
100
AcDbDictionary
281
     1
  0
DICTIONARY
  5
1A
102
{ACAD_REACTORS
330
C
102
}
330
C
100
AcDbDictionary
281
     1
  3
Layout1
350
74
  3
Model
350
22
  0
DICTIONARY
  5
6B
102
{ACAD_REACTORS
330
C
102
}
330
C
100
AcDbDictionary
281
     1
  0
DICTIONARY
  5
741
102
{ACAD_REACTORS
330
C
102
}
330
C
100
AcDbDictionary
281
     1
  0
DICTIONARY
  5
17
102
{ACAD_REACTORS
330
C
102
}
330
C
100
AcDbDictionary
281
     1
  3
Standard
350
18
  0
DICTIONARY
  5
19
102
{ACAD_REACTORS
330
C
102
}
330
C
100
AcDbDictionary
281
     1
  0
ACDBDICTIONARYWDFLT
  5
E
102
{ACAD_REACTORS
330
C
102
}
330
C
100
AcDbDictionary
281
     1
  3
Normal
350
F
100
AcDbDictionaryWithDefault
340
F
  0
DICTIONARY
  5
92
102
{ACAD_REACTORS
330
C
102
}
330
C
100
AcDbDictionary
281
     1
  3
STANDARD
350
547
  0
DICTIONARY
  5
742
102
{ACAD_REACTORS
330
C
102
}
330
C
100
AcDbDictionary
281
     1
  3
COLORDICT
350
743
  3
MATERIALDICT
350
744
  0
DICTIONARY
  5
59
102
{ACAD_REACTORS
330
C
102
}
330
C
100
AcDbDictionary
281
     1
  3
CTABLESTYLE
350
98
  3
DIMASSOC
350
6C9
  3
HIDETEXT
350
4EE
  0
DICTIONARY
  5
46C
102
{ACAD_REACTORS
330
C
102
}
330
C
100
AcDbDictionary
281
     1
  3
ASEBLOCKHIERARCHYINDEXRECORD
350
46E
  0
XRECORD
  5
745
102
{ACAD_REACTORS
330
C
102
}
330
C
100
AcDbXrecord
280
     1
  1
DWGPROPS COOKIE
  2

  3

  4

  6

  7

  8
fottrem
  9

300
=
301
=
302
=
303
=
304
=
305
=
306
=
307
=
308
=
309
=
 40
0.0
 41
2453353.717125822
 42
2454509.960683044
  1

 90
        0
  0
LAYOUT
  5
74
102
{ACAD_REACTORS
330
1A
102
}
330
1A
100
AcDbPlotSettings
  1

  2
\\ADSCCNDC1\hq601xrx1
  4

  6

 40
0.0
 41
0.0
 42
0.0
 43
0.0
 44
0.0
 45
0.0
 46
0.0
 47
0.0
 48
0.0
 49
0.0
140
0.0
141
0.0
142
1.0
143
1.0
 70
   688
 72
     0
 73
     0
 74
     5
  7

 75
    16
147
1.0
148
0.0
149
0.0
100
AcDbLayout
  1
Layout1
 70
     1
 71
     1
 10
0.0
 20
0.0
 11
12.0
 21
9.0
 12
0.0
 22
0.0
 32
0.0
 14
1.000000000000000E+20
 24
1.000000000000000E+20
 34
1.000000000000000E+20
 15
-1.000000000000000E+20
 25
-1.000000000000000E+20
 35
-1.000000000000000E+20
146
0.0
 13
0.0
 23
0.0
 33
0.0
 16
1.0
 26
0.0
 36
0.0
 17
0.0
 27
1.0
 37
0.0
 76
     0
330
73
  0
LAYOUT
  5
22
102
{ACAD_REACTORS
330
1A
102
}
330
1A
100
AcDbPlotSettings
  1

  2
HP LaserJet 4 Plus
  4
Letter
  6

 40
7.143749713897705
 41
6.720414161682128
 42
7.14373779296875
 43
5.027069091796875
 44
215.8999938964843
 45
279.3999938964843
 46
0.0
 47
0.0
 48
-0.0377952612745816
 49
-0.0823715796130884
140
8.557672906580869
141
11.05139320903534
142
1.0
143
1.082893593126676
 70
 11952
 72
     0
 73
     0
 74
     4
  7

 75
     0
147
0.9234517651107941
148
0.9599996363743713
149
2.092238122172445
100
AcDbLayout
  1
Model
 70
     1
 71
     0
 10
0.0
 20
0.0
 11
0.0
 21
0.0
 12
0.0
 22
0.0
 32
0.0
 14
0.0
 24
0.0
 34
-3.004955431567928
 15
8.500000000000001
 25
11.0
 35
9.014866294703786
146
0.0
 13
0.0
 23
0.0
 33
0.0
 16
1.0
 26
0.0
 36
0.0
 17
0.0
 27
1.0
 37
0.0
 76
     0
330
1F
  0
MLINESTYLE
  5
18
102
{ACAD_REACTORS
330
17
102
}
330
17
100
AcDbMlineStyle
  2
STANDARD
 70
     0
  3

 62
     0
 51
90.00000000000019
 52
90.00000000000019
 71
     2
 49
0.5
 62
   256
  6
BYLAYER
 49
-0.5
 62
   256
  6
BYLAYER
  0
ACDBPLACEHOLDER
  5
F
102
{ACAD_REACTORS
330
E
102
}
330
E
  0
ACAD_PROXY_OBJECT
  5
547
102
{ACAD_XDICTIONARY
360
746
102
}
102
{ACAD_REACTORS
330
92
102
}
330
92
100
AcDbProxyObject
 90
      499
 91
      504
 95
   393239
 70
     0
 93
     1841
310
4214DD185B99185C9928B81E85EB51B8AE3F2E07A17AD46E2B8FC02B5E8DC0F42B1CFD028000000C1008070000C3001FDFF8000000C1003FBFF000000182007F7FE00000030400FEFFC00000060801FDFF8000000C1003FBFF00000018200000000000000681FA0B0000001820100E000186003FBFF000000182007F7FE000
310
00030400FEFFC00000060801FDFF8000000C1003FBFF000000182007F7FE000000304000AD7A3703D0AC73F4160000003040201C00030C007F7FE00000030400FEFFC00000060801FDFF8000000C1003FBFF000000182007F7FE00000030400FEFFC000000608000
340
11
340
11
340
11
 94
        0
  0
XRECORD
  5
743
102
{ACAD_REACTORS
330
742
102
}
330
742
100
AcDbXrecord
280
     1
340
6C
  0
XRECORD
  5
744
102
{ACAD_REACTORS
330
742
102
}
330
742
100
AcDbXrecord
280
     1
340
6B
  0
DICTIONARYVAR
  5
98
102
{ACAD_REACTORS
330
59
102
}
330
59
100
DictionaryVariables
280
     0
  1

  0
DICTIONARYVAR
  5
6C9
102
{ACAD_REACTORS
330
59
102
}
330
59
100
DictionaryVariables
280
     0
  1
2
  0
DICTIONARYVAR
  5
4EE
102
{ACAD_REACTORS
330
59
102
}
330
59
100
DictionaryVariables
280
     0
  1
2
  0
XRECORD
  5
46E
102
{ACAD_REACTORS
330
46C
102
}
330
46C
100
AcDbXrecord
280
     1
330
3D4
330
3DB
330
3E2
330
3E9
330
3F0
330
3F7
330
3FE
330
0
330
430
  0
DICTIONARY
  5
746
330
547
100
AcDbDictionary
280
     1
281
     1
  3
ACAD_XREC_ROUNDTRIP
360
747
  0
XRECORD
  5
747
102
{ACAD_REACTORS
330
746
102
}
330
746
100
AcDbXrecord
280
     1
102
ACAD_ROUNDTRIP_PRE2007_TABLESTYLE
 90
      512
 91
        0
  1

 92
      512
 93
        0
  2

 94
      512
 95
        0
  3

  0
ENDSEC
  0
EOF
